找回密码

蓝光电影网

查看: 280|回复: 1

[动作] 神偷军团/不羁贼军 Army.of.Thieves.2021.1080p.NF.WEBRip.DDP5.1.Atmos.x264-TEPES 3.41GB

[复制链接]
蓝光币
682
发表于 2021-10-29 19:19:54 | 显示全部楼层 |阅读模式


◎译  名 神偷军团/不羁贼军/活死人军团前传/神偷雄师/窃贼军团/行盗之师
◎片  名 Army of Thieves
◎年  代 2021
◎产  地 德国,美国
◎类  别 行动 / 犯罪
◎语  言 英语,法语,德语
◎上映日期 2021-10-29(美国收集)
◎豆瓣评分 /10 from 0 users
◎豆瓣链接 https://movie.douban.com/subject/35245762/
◎导  演 马提亚斯·施维赫夫 Matthias Schweigh?fer
◎编  剧 谢伊·哈顿 Shay Hatten / 扎克·施奈德 Zack Snyder
◎主  演 马提亚斯·施维赫夫 Matthias Schweigh?fer
       娜塔莉·伊曼纽尔 Nathalie Emmanuel
       露比·欧·菲 Ruby O. Fee
       斯图尔特·马丁 Stuart Martin
       古兹·可汗 Guz Khan
       乔纳森·科恩 Jonathan Cohen
       诺米·娜凯 Noémie Nakai
       特论特·加内特 Trent Garrett
       芭芭拉·梅尔 Barbara Meier
       吉姆·海伊 Jim High
       崔西·奥斯蒙德 Trish Osmond
◎标  签 扎克·施奈德 | 行动 | 犯罪 | 丧尸 | 德国 | 扎克施耐德 | 2021 | 惊悚
◎简  介


  这是扎克·斯奈德的电影《亡者之师》的前传,片中小镇银行出纳迪特尔被一位奥秘女子招进一支抢劫团队。团队成员均是被国际刑警构造盯上的头号通缉犯,他们以欧洲各地最难破解的传奇保险箱为方针,这让迪特尔由此踏上了毕生难忘的冒险之旅。
  1. Video
  2. ID                                       : 1
  3. Format                                   : AVC
  4. Format/Info                              : Advanced Video Codec
  5. Format profile                           : [email protected]
  6. Format settings                          : CABAC / 3 Ref Frames
  7. Format settings, CABAC                   : Yes
  8. Format settings, Reference frames        : 3 frames
  9. Codec ID                                 : V_MPEG4/ISO/AVC
  10. Duration                                 : 2 h 9 min
  11. Bit rate mode                            : Variable
  12. Bit rate                                 : 2 991 kb/s
  13. Nominal bit rate                         : 3 661 kb/s
  14. Maximum bit rate                         : 5 745 kb/s
  15. Width                                    : 1 920 pixels
  16. Height                                   : 1 080 pixels
  17. Display aspect ratio                     : 16:9
  18. Frame rate mode                          : Constant
  19. Frame rate                               : 24.000 FPS
  20. Color space                              : YUV
  21. Chroma subsampling                       : 4:2:0
  22. Bit depth                                : 8 bits
  23. Scan type                                : Progressive
  24. Bits/(Pixel*Frame)                       : 0.060
  25. Stream size                              : 2.71 GiB (79%)
  26. Writing library                          : x264 core 148 r2724 dbe0335
  27. Encoding settings                        : cabac=1 / ref=3 / deblock=1:0:0 / analyse=0x1:0x111 / me=umh / subme=10 / psy=1 / psy_rd=1.00:0.00 / mixed_ref=1 / me_range=24 / chroma_me=1 / trellis=2 / 8x8dct=0 / cqm=0 / deadzone=21,11 / fast_pskip=1 / chroma_qp_offset=-2 / threads=8 / lookahead_threads=1 / sliced_threads=0 / nr=0 / decimate=1 / interlaced=0 / bluray_compat=0 / stitchable=1 / constrained_intra=0 / bframes=2 / b_pyramid=0 / b_adapt=2 / b_bias=0 / direct=3 / weightb=1 / open_gop=0 / weightp=2 / keyint=250 / keyint_min=24 / scenecut=0 / intra_refresh=0 / rc_lookahead=48 / rc=2pass / mbtree=1 / bitrate=3661 / ratetol=1.0 / qcomp=0.50 / qpmin=6 / qpmax=51 / qpstep=4 / cplxblur=20.0 / qblur=0.5 / vbv_maxrate=5745 / vbv_bufsize=7660 / nal_hrd=vbr / filler=0 / ip_ratio=1.40 / aq=1:1.00
  28. Default                                  : Yes
  29. Forced                                   : No
  30. Audio
  31. ID                                       : 2
  32. Format                                   : E-AC-3 JOC
  33. Format/Info                              : Enhanced AC-3 with Joint Object Coding
  34. Commercial name                          : Dolby Digital Plus with Dolby Atmos
  35. Codec ID                                 : A_EAC3
  36. Duration                                 : 2 h 9 min
  37. Bit rate mode                            : Constant
  38. Bit rate                                 : 768 kb/s
  39. Channel(s)                               : 6 channels
  40. Channel layout                           : L R C LFE Ls Rs
  41. Sampling rate                            : 48.0 kHz
  42. Frame rate                               : 31.250 FPS (1536 SPF)
  43. Compression mode                         : Lossy
  44. Stream size                              : 712 MiB (20%)
  45. Language                                 : English
  46. Service kind                             : Complete Main
  47. Default                                  : Yes
  48. Forced                                   : No
  49. Complexity index                         : 16
  50. Number of dynamic objects                : 15
  51. Bed channel count                        : 1 channel
  52. Bed channel configuration                : LFE
  53. Text #1
  54. ID                                       : 3
  55. Format                                   : UTF-8
  56. Codec ID                                 : S_TEXT/UTF8
  57. Codec ID/Info                            : UTF-8 Plain Text
  58. Duration                                 : 1 h 49 min
  59. Bit rate                                 : 4 b/s
  60. Count of elements                        : 150
  61. Stream size                              : 3.84 KiB (0%)
  62. Title                                    : Forced
  63. Language                                 : English
  64. Default                                  : Yes
  65. Forced                                   : Yes
  66. Text #2
  67. ID                                       : 4
  68. Format                                   : UTF-8
  69. Codec ID                                 : S_TEXT/UTF8
  70. Codec ID/Info                            : UTF-8 Plain Text
  71. Duration                                 : 2 h 2 min
  72. Bit rate                                 : 52 b/s
  73. Count of elements                        : 1505
  74. Stream size                              : 47.4 KiB (0%)
  75. Language                                 : English
  76. Default                                  : No
  77. Forced                                   : No
  78. Text #3
  79. ID                                       : 5
  80. Format                                   : UTF-8
  81. Codec ID                                 : S_TEXT/UTF8
  82. Codec ID/Info                            : UTF-8 Plain Text
  83. Duration                                 : 2 h 2 min
  84. Bit rate                                 : 61 b/s
  85. Count of elements                        : 1761
  86. Stream size                              : 55.4 KiB (0%)
  87. Title                                    : SDH
  88. Language                                 : English
  89. Default                                  : No
  90. Forced                                   : No
  91. Text #4
  92. ID                                       : 6
  93. Format                                   : UTF-8
  94. Codec ID                                 : S_TEXT/UTF8
  95. Codec ID/Info                            : UTF-8 Plain Text
  96. Duration                                 : 2 h 7 min
  97. Bit rate                                 : 86 b/s
  98. Count of elements                        : 1526
  99. Stream size                              : 81.0 KiB (0%)
  100. Language                                 : Arabic
  101. Default                                  : No
  102. Forced                                   : No
  103. Text #5
  104. ID                                       : 7
  105. Format                                   : UTF-8
  106. Codec ID                                 : S_TEXT/UTF8
  107. Codec ID/Info                            : UTF-8 Plain Text
  108. Duration                                 : 2 h 2 min
  109. Bit rate                                 : 48 b/s
  110. Count of elements                        : 1522
  111. Stream size                              : 43.7 KiB (0%)
  112. Language                                 : Czech
  113. Default                                  : No
  114. Forced                                   : No
  115. Text #6
  116. ID                                       : 8
  117. Format                                   : UTF-8
  118. Codec ID                                 : S_TEXT/UTF8
  119. Codec ID/Info                            : UTF-8 Plain Text
  120. Duration                                 : 2 h 7 min
  121. Bit rate                                 : 44 b/s
  122. Count of elements                        : 1511
  123. Stream size                              : 41.2 KiB (0%)
  124. Language                                 : Danish
  125. Default                                  : No
  126. Forced                                   : No
  127. Text #7
  128. ID                                       : 9
  129. Format                                   : UTF-8
  130. Codec ID                                 : S_TEXT/UTF8
  131. Codec ID/Info                            : UTF-8 Plain Text
  132. Duration                                 : 2 h 7 min
  133. Bit rate                                 : 44 b/s
  134. Count of elements                        : 1437
  135. Stream size                              : 41.9 KiB (0%)
  136. Language                                 : German
  137. Default                                  : No
  138. Forced                                   : No
  139. Text #8
  140. ID                                       : 10
  141. Format                                   : UTF-8
  142. Codec ID                                 : S_TEXT/UTF8
  143. Codec ID/Info                            : UTF-8 Plain Text
  144. Duration                                 : 2 h 7 min
  145. Bit rate                                 : 80 b/s
  146. Count of elements                        : 1524
  147. Stream size                              : 75.6 KiB (0%)
  148. Language                                 : Greek
  149. Default                                  : No
  150. Forced                                   : No
  151. Text #9
  152. ID                                       : 11
  153. Format                                   : UTF-8
  154. Codec ID                                 : S_TEXT/UTF8
  155. Codec ID/Info                            : UTF-8 Plain Text
  156. Duration                                 : 2 h 7 min
  157. Bit rate                                 : 46 b/s
  158. Count of elements                        : 1505
  159. Stream size                              : 43.2 KiB (0%)
  160. Language                                 : Spanish
  161. Default                                  : No
  162. Forced                                   : No
  163. Text #10
  164. ID                                       : 12
  165. Format                                   : UTF-8
  166. Codec ID                                 : S_TEXT/UTF8
  167. Codec ID/Info                            : UTF-8 Plain Text
  168. Duration                                 : 2 h 7 min
  169. Bit rate                                 : 45 b/s
  170. Count of elements                        : 1511
  171. Stream size                              : 42.1 KiB (0%)
  172. Title                                    : European
  173. Language                                 : Spanish
  174. Default                                  : No
  175. Forced                                   : No
  176. Text #11
  177. ID                                       : 13
  178. Format                                   : UTF-8
  179. Codec ID                                 : S_TEXT/UTF8
  180. Codec ID/Info                            : UTF-8 Plain Text
  181. Duration                                 : 2 h 7 min
  182. Bit rate                                 : 42 b/s
  183. Count of elements                        : 1506
  184. Stream size                              : 39.4 KiB (0%)
  185. Language                                 : Finnish
  186. Default                                  : No
  187. Forced                                   : No
  188. Text #12
  189. ID                                       : 14
  190. Format                                   : UTF-8
  191. Codec ID                                 : S_TEXT/UTF8
  192. Codec ID/Info                            : UTF-8 Plain Text
  193. Duration                                 : 2 h 7 min
  194. Bit rate                                 : 42 b/s
  195. Count of elements                        : 1422
  196. Stream size                              : 40.1 KiB (0%)
  197. Language                                 : French
  198. Default                                  : No
  199. Forced                                   : No
  200. Text #13
  201. ID                                       : 15
  202. Format                                   : UTF-8
  203. Codec ID                                 : S_TEXT/UTF8
  204. Codec ID/Info                            : UTF-8 Plain Text
  205. Duration                                 : 2 h 7 min
  206. Bit rate                                 : 72 b/s
  207. Count of elements                        : 1526
  208. Stream size                              : 67.3 KiB (0%)
  209. Language                                 : Hebrew
  210. Default                                  : No
  211. Forced                                   : No
  212. Text #14
  213. ID                                       : 16
  214. Format                                   : UTF-8
  215. Codec ID                                 : S_TEXT/UTF8
  216. Codec ID/Info                            : UTF-8 Plain Text
  217. Duration                                 : 2 h 7 min
  218. Bit rate                                 : 42 b/s
  219. Count of elements                        : 1512
  220. Stream size                              : 40.0 KiB (0%)
  221. Language                                 : Croatian
  222. Default                                  : No
  223. Forced                                   : No
  224. Text #15
  225. ID                                       : 17
  226. Format                                   : UTF-8
  227. Codec ID                                 : S_TEXT/UTF8
  228. Codec ID/Info                            : UTF-8 Plain Text
  229. Duration                                 : 2 h 7 min
  230. Bit rate                                 : 45 b/s
  231. Count of elements                        : 1514
  232. Stream size                              : 42.5 KiB (0%)
  233. Language                                 : Hungarian
  234. Default                                  : No
  235. Forced                                   : No
  236. Text #16
  237. ID                                       : 18
  238. Format                                   : UTF-8
  239. Codec ID                                 : S_TEXT/UTF8
  240. Codec ID/Info                            : UTF-8 Plain Text
  241. Duration                                 : 2 h 7 min
  242. Bit rate                                 : 44 b/s
  243. Count of elements                        : 1510
  244. Stream size                              : 41.9 KiB (0%)
  245. Language                                 : Indonesian
  246. Default                                  : No
  247. Forced                                   : No
  248. Text #17
  249. ID                                       : 19
  250. Format                                   : UTF-8
  251. Codec ID                                 : S_TEXT/UTF8
  252. Codec ID/Info                            : UTF-8 Plain Text
  253. Duration                                 : 2 h 7 min
  254. Bit rate                                 : 44 b/s
  255. Count of elements                        : 1484
  256. Stream size                              : 41.6 KiB (0%)
  257. Language                                 : Italian
  258. Default                                  : No
  259. Forced                                   : No
  260. Text #18
  261. ID                                       : 20
  262. Format                                   : UTF-8
  263. Codec ID                                 : S_TEXT/UTF8
  264. Codec ID/Info                            : UTF-8 Plain Text
  265. Duration                                 : 2 h 7 min
  266. Bit rate                                 : 51 b/s
  267. Count of elements                        : 1565
  268. Stream size                              : 47.7 KiB (0%)
  269. Language                                 : Japanese
  270. Default                                  : No
  271. Forced                                   : No
  272. Text #19
  273. ID                                       : 21
  274. Format                                   : UTF-8
  275. Codec ID                                 : S_TEXT/UTF8
  276. Codec ID/Info                            : UTF-8 Plain Text
  277. Duration                                 : 2 h 7 min
  278. Bit rate                                 : 62 b/s
  279. Count of elements                        : 1527
  280. Stream size                              : 58.3 KiB (0%)
  281. Language                                 : Korean
  282. Default                                  : No
  283. Forced                                   : No
  284. Text #20
  285. ID                                       : 22
  286. Format                                   : UTF-8
  287. Codec ID                                 : S_TEXT/UTF8
  288. Codec ID/Info                            : UTF-8 Plain Text
  289. Duration                                 : 2 h 7 min
  290. Bit rate                                 : 46 b/s
  291. Count of elements                        : 1500
  292. Stream size                              : 43.0 KiB (0%)
  293. Language                                 : Malay
  294. Default                                  : No
  295. Forced                                   : No
  296. Text #21
  297. ID                                       : 23
  298. Format                                   : UTF-8
  299. Codec ID                                 : S_TEXT/UTF8
  300. Codec ID/Info                            : UTF-8 Plain Text
  301. Duration                                 : 2 h 7 min
  302. Bit rate                                 : 43 b/s
  303. Count of elements                        : 1509
  304. Stream size                              : 40.9 KiB (0%)
  305. Language                                 : Norwegian Bokmal
  306. Default                                  : No
  307. Forced                                   : No
  308. Text #22
  309. ID                                       : 24
  310. Format                                   : UTF-8
  311. Codec ID                                 : S_TEXT/UTF8
  312. Codec ID/Info                            : UTF-8 Plain Text
  313. Duration                                 : 2 h 7 min
  314. Bit rate                                 : 41 b/s
  315. Count of elements                        : 1470
  316. Stream size                              : 38.9 KiB (0%)
  317. Language                                 : Dutch
  318. Default                                  : No
  319. Forced                                   : No
  320. Text #23
  321. ID                                       : 25
  322. Format                                   : UTF-8
  323. Codec ID                                 : S_TEXT/UTF8
  324. Codec ID/Info                            : UTF-8 Plain Text
  325. Duration                                 : 2 h 7 min
  326. Bit rate                                 : 42 b/s
  327. Count of elements                        : 1504
  328. Stream size                              : 40.1 KiB (0%)
  329. Language                                 : Polish
  330. Default                                  : No
  331. Forced                                   : No
  332. Text #24
  333. ID                                       : 26
  334. Format                                   : UTF-8
  335. Codec ID                                 : S_TEXT/UTF8
  336. Codec ID/Info                            : UTF-8 Plain Text
  337. Duration                                 : 2 h 7 min
  338. Bit rate                                 : 47 b/s
  339. Count of elements                        : 1505
  340. Stream size                              : 44.1 KiB (0%)
  341. Language                                 : Portuguese
  342. Default                                  : No
  343. Forced                                   : No
  344. Text #25
  345. ID                                       : 27
  346. Format                                   : UTF-8
  347. Codec ID                                 : S_TEXT/UTF8
  348. Codec ID/Info                            : UTF-8 Plain Text
  349. Duration                                 : 2 h 7 min
  350. Bit rate                                 : 47 b/s
  351. Count of elements                        : 1465
  352. Stream size                              : 44.1 KiB (0%)
  353. Title                                    : Brazilian
  354. Language                                 : Portuguese
  355. Default                                  : No
  356. Forced                                   : No
  357. Text #26
  358. ID                                       : 28
  359. Format                                   : UTF-8
  360. Codec ID                                 : S_TEXT/UTF8
  361. Codec ID/Info                            : UTF-8 Plain Text
  362. Duration                                 : 2 h 7 min
  363. Bit rate                                 : 53 b/s
  364. Count of elements                        : 1509
  365. Stream size                              : 50.2 KiB (0%)
  366. Language                                 : Romanian
  367. Default                                  : No
  368. Forced                                   : No
  369. Text #27
  370. ID                                       : 29
  371. Format                                   : UTF-8
  372. Codec ID                                 : S_TEXT/UTF8
  373. Codec ID/Info                            : UTF-8 Plain Text
  374. Duration                                 : 2 h 7 min
  375. Bit rate                                 : 75 b/s
  376. Count of elements                        : 1514
  377. Stream size                              : 70.8 KiB (0%)
  378. Language                                 : Russian
  379. Default                                  : No
  380. Forced                                   : No
  381. Text #28
  382. ID                                       : 30
  383. Format                                   : UTF-8
  384. Codec ID                                 : S_TEXT/UTF8
  385. Codec ID/Info                            : UTF-8 Plain Text
  386. Duration                                 : 2 h 7 min
  387. Bit rate                                 : 42 b/s
  388. Count of elements                        : 1506
  389. Stream size                              : 39.8 KiB (0%)
  390. Language                                 : Swedish
  391. Default                                  : No
  392. Forced                                   : No
  393. Text #29
  394. ID                                       : 31
  395. Format                                   : UTF-8
  396. Codec ID                                 : S_TEXT/UTF8
  397. Codec ID/Info                            : UTF-8 Plain Text
  398. Duration                                 : 2 h 7 min
  399. Bit rate                                 : 131 b/s
  400. Count of elements                        : 1530
  401. Stream size                              : 123 KiB (0%)
  402. Language                                 : Thai
  403. Default                                  : No
  404. Forced                                   : No
  405. Text #30
  406. ID                                       : 32
  407. Format                                   : UTF-8
  408. Codec ID                                 : S_TEXT/UTF8
  409. Codec ID/Info                            : UTF-8 Plain Text
  410. Duration                                 : 2 h 7 min
  411. Bit rate                                 : 47 b/s
  412. Count of elements                        : 1516
  413. Stream size                              : 44.1 KiB (0%)
  414. Language                                 : Turkish
  415. Default                                  : No
  416. Forced                                   : No
  417. Text #31
  418. ID                                       : 33
  419. Format                                   : UTF-8
  420. Codec ID                                 : S_TEXT/UTF8
  421. Codec ID/Info                            : UTF-8 Plain Text
  422. Duration                                 : 2 h 2 min
  423. Bit rate                                 : 79 b/s
  424. Count of elements                        : 1520
  425. Stream size                              : 71.2 KiB (0%)
  426. Language                                 : Ukrainian
  427. Default                                  : No
  428. Forced                                   : No
  429. Text #32
  430. ID                                       : 34
  431. Format                                   : UTF-8
  432. Codec ID                                 : S_TEXT/UTF8
  433. Codec ID/Info                            : UTF-8 Plain Text
  434. Duration                                 : 2 h 7 min
  435. Bit rate                                 : 63 b/s
  436. Count of elements                        : 1510
  437. Stream size                              : 58.9 KiB (0%)
  438. Language                                 : Vietnamese
  439. Default                                  : No
  440. Forced                                   : No
  441. Text #33
  442. ID                                       : 35
  443. Format                                   : UTF-8
  444. Codec ID                                 : S_TEXT/UTF8
  445. Codec ID/Info                            : UTF-8 Plain Text
  446. Duration                                 : 2 h 7 min
  447. Bit rate                                 : 55 b/s
  448. Count of elements                        : 1526
  449. Stream size                              : 51.8 KiB (0%)
  450. Title                                    : Simplified
  451. Language                                 : Chinese
  452. Default                                  : No
  453. Forced                                   : No
  454. Text #34
  455. ID                                       : 36
  456. Format                                   : UTF-8
  457. Codec ID                                 : S_TEXT/UTF8
  458. Codec ID/Info                            : UTF-8 Plain Text
  459. Duration                                 : 2 h 7 min
  460. Bit rate                                 : 49 b/s
  461. Count of elements                        : 1524
  462. Stream size                              : 46.4 KiB (0%)
  463. Title                                    : Traditional
  464. Language                                 : Chinese
  465. Default                                  : No
  466. Forced                                   : No
复制代码







                                       
                                       

                                       
                                       
                                       




回复

使用道具 举报

蓝光币
1
发表于 2021-11-14 20:19:44 | 显示全部楼层
感谢楼主的资源,谢谢
回复 支持 反对

使用道具 举报

懒得打字嘛,点击右侧快捷回复 【右侧内容,后台自定义】
您需要登录后才可以回帖 登录 | 立即加入

本版积分规则

Archiver|小黑屋| 蓝光电影网 |网站地图

Copyright © 2021 Comsenz Inc. Powered by 蓝光电影网

蓝光电影网

本站内容由用户自主分享和转载自互联网,转载目的在于传递更多信息,并不代表本网赞同其观点和对其真实性负责。

如有侵权、违反国家法律政策行为,请联系我们,我们会第一时间及时清除和处理!

举报反馈邮箱:[email protected]

快速回复 返回顶部 返回列表