找回密码

蓝光电影网

查看: 134|回复: 0

[恐怖] 黑色恐怖 Horror.Noire.2021.1080p.AMZN.WEBRip.DDP2.0.x264-NOGRP 10.17GB

[复制链接]
蓝光币
682
发表于 2021-10-29 19:42:21 | 显示全部楼层 |阅读模式


◎译  名 黑色可骇
◎片  名 Horror Noire
◎年  代 2021
◎产  地 美国
◎类  别 可骇
◎语  言 英语
◎上映日期 2021-10-28(美国收集)
◎豆瓣评分 /10 from 0 users
◎豆瓣链接 https://movie.douban.com/subject/35629783/
◎片  长 120分钟
◎导  演 基马尼·雷·史姑娘 Kimani Ray Smith
◎编  剧 Steven Barnes Steven Barnes
◎主  演 莱斯丽-安·布莱德 Lesley-Ann Brandt
       彼得·斯特曼 Peter Stormare
       托尼·托德 Tony Todd
       勒诺拉·克里奇洛 Lenora Crichlow
       蕾切尔·楚 Rachel True
       马尔科姆·巴雷特 Malcolm Barrett
       西恩·帕特里克·汤玛斯 Sean Patrick Thomas
       拉韦尔·克劳福德 Lavell Crawford
       林恩·阿什 Lynne Ashe
       加布里埃·宾德洛斯 Gabrielle Byndloss
       埃丽卡·阿什 Erica Ash
       托恩·贝尔 Tone Bell
◎标  签 WK
◎简  介


  Presents together six horror stories from Black directors and screenwriters in a single film: "Daddy," "Bride Before You," "Brand of Evil," "The Lake," "Sundown" and "Fugue State".
  1. Video
  2. ID                                       : 1
  3. Format                                   : AVC
  4. Format/Info                              : Advanced Video Codec
  5. Format profile                           : [email protected]
  6. Format settings                          : CABAC / 4 Ref Frames
  7. Format settings, CABAC                   : Yes
  8. Format settings, Reference frames        : 4 frames
  9. Codec ID                                 : V_MPEG4/ISO/AVC
  10. Duration                                 : 2 h 32 min
  11. Bit rate mode                            : Constant
  12. Bit rate                                 : 9 304 kb/s
  13. Nominal bit rate                         : 10 000 kb/s
  14. Width                                    : 1 920 pixels
  15. Height                                   : 1 080 pixels
  16. Display aspect ratio                     : 16:9
  17. Frame rate mode                          : Constant
  18. Frame rate                               : 24.000 FPS
  19. Color space                              : YUV
  20. Chroma subsampling                       : 4:2:0
  21. Bit depth                                : 8 bits
  22. Scan type                                : Progressive
  23. Bits/(Pixel*Frame)                       : 0.187
  24. Stream size                              : 9.93 GiB (98%)
  25. Default                                  : Yes
  26. Forced                                   : No
  27. Color range                              : Limited
  28. Color primaries                          : BT.709
  29. Transfer characteristics                 : BT.709
  30. Matrix coefficients                      : BT.709
  31. Audio
  32. ID                                       : 2
  33. Format                                   : E-AC-3
  34. Format/Info                              : Enhanced AC-3
  35. Commercial name                          : Dolby Digital Plus
  36. Codec ID                                 : A_EAC3
  37. Duration                                 : 2 h 32 min
  38. Bit rate mode                            : Constant
  39. Bit rate                                 : 224 kb/s
  40. Channel(s)                               : 2 channels
  41. Channel layout                           : L R
  42. Sampling rate                            : 48.0 kHz
  43. Frame rate                               : 31.250 FPS (1536 SPF)
  44. Compression mode                         : Lossy
  45. Stream size                              : 245 MiB (2%)
  46. Language                                 : English
  47. Service kind                             : Complete Main
  48. Default                                  : Yes
  49. Forced                                   : No
  50. Text
  51. ID                                       : 3
  52. Format                                   : UTF-8
  53. Codec ID                                 : S_TEXT/UTF8
  54. Codec ID/Info                            : UTF-8 Plain Text
  55. Duration                                 : 2 h 29 min
  56. Bit rate                                 : 61 b/s
  57. Count of elements                        : 2374
  58. Stream size                              : 67.0 KiB (0%)
  59. Title                                    : SDH
  60. Language                                 : English
  61. Default                                  : No
  62. Forced                                   : No
复制代码






                                       
                                       

                                       
                                       
                                       




回复

使用道具 举报

懒得打字嘛,点击右侧快捷回复 【右侧内容,后台自定义】
您需要登录后才可以回帖 登录 | 立即加入

本版积分规则

Archiver|小黑屋| 蓝光电影网 |网站地图

Copyright © 2021 Comsenz Inc. Powered by 蓝光电影网

蓝光电影网

本站内容由用户自主分享和转载自互联网,转载目的在于传递更多信息,并不代表本网赞同其观点和对其真实性负责。

如有侵权、违反国家法律政策行为,请联系我们,我们会第一时间及时清除和处理!

举报反馈邮箱:[email protected]

快速回复 返回顶部 返回列表