找回密码

蓝光电影网

查看: 434|回复: 1

[剧情] 无主之人 No.Man.of.God.2021.1080p.BluRay.REMUX.AVC.DTS-HD.MA.5.1-FGT 16.66GB

[复制链接]
蓝光币
733
发表于 2021-10-29 20:41:42 | 显示全部楼层 |阅读模式


◎译  名 无主之人
◎片  名 No Man Of God
◎年  代 2021
◎产  地 美国
◎类  别 剧情 / 悬疑 / 列传 / 犯罪
◎语  言 英语
◎上映日期 2021-06-11(美国)
◎豆瓣评分 6.5/10 from 236 users
◎豆瓣链接 https://movie.douban.com/subject/35101438/
◎片  长 100分钟
◎编  剧 C·罗伯特·嘉吉 C. Robert Cargill
◎主  演 伊利亚·伍德 Elijah Wood
       卢克·柯比 Luke Kirby
       阿莱卡萨·帕拉迪诺 Aleksa Palladino
       罗伯特·帕特里克 Robert Patrick
       W·厄尔·布朗 W. Earl Brown
       克里斯蒂安·克莱门松 Christian Clemenson
       雨果·阿姆斯特朗 Hugo Armstrong
       尼卡恩·罗宾逊 Nican Robinson
       威尔·哈里斯 Will Harris
       Jarrett Sleeper Jarrett Sleeper
       道格·考克斯 Doug Cox
       汤姆·维图 Tom Virtue
◎标  签 犯罪 | 美国 | 2021 | 剧情 | 悬疑 | 美国电影 | 惊悚 | 列传
◎简  介


  伊利亚·伍德将主演犯罪题材惊悚片[无主之人](No Man Of God,暂译)。Amber Sealey执导,C·罗伯特·嘉吉([邪恶])操刀剧本。影片设定在一个零丁的审判室中,故事按照FBI心理分析师比尔·哈格迈尔(伍德饰)与连环杀手邦迪于1984年至1989年之间的对话笔墨摘录改编,影片将具体先容邦迪在死囚牢房最初几年间,两人之间复杂的关系。
  1. Video
  2. ID                                       : 1
  3. ID in the original source medium         : 4113 (0x1011)
  4. Format                                   : AVC
  5. Format/Info                              : Advanced Video Codec
  6. Format profile                           : [email protected]
  7. Format settings                          : CABAC / 4 Ref Frames
  8. Format settings, CABAC                   : Yes
  9. Format settings, Reference frames        : 4 frames
  10. Codec ID                                 : V_MPEG4/ISO/AVC
  11. Duration                                 : 1 h 40 min
  12. Bit rate mode                            : Variable
  13. Bit rate                                 : 20.7 Mb/s
  14. Maximum bit rate                         : 36.0 Mb/s
  15. Width                                    : 1 920 pixels
  16. Height                                   : 1 080 pixels
  17. Display aspect ratio                     : 16:9
  18. Frame rate mode                          : Constant
  19. Frame rate                               : 23.976 (24000/1001/189150) FPS
  20. Color space                              : YUV
  21. Chroma subsampling                       : 4:2:0
  22. Bit depth                                : 8 bits
  23. Scan type                                : Progressive
  24. Bits/(Pixel*Frame)                       : 0.416
  25. Stream size                              : 14.5 GiB (87%)
  26. Language                                 : English
  27. Default                                  : No
  28. Forced                                   : No
  29. Original source medium                   : Blu-ray
  30. Audio
  31. ID                                       : 2
  32. ID in the original source medium         : 4352 (0x1100)
  33. Format                                   : DTS XLL
  34. Format/Info                              : Digital Theater Systems
  35. Commercial name                          : DTS-HD Master Audio
  36. Codec ID                                 : A_DTS
  37. Duration                                 : 1 h 40 min
  38. Bit rate mode                            : Variable
  39. Bit rate                                 : 3 064 kb/s
  40. Channel(s)                               : 6 channels
  41. Channel layout                           : C L R Ls Rs LFE
  42. Sampling rate                            : 48.0 kHz
  43. Frame rate                               : 93.750 FPS (512 SPF)
  44. Bit depth                                : 24 bits
  45. Compression mode                         : Lossless
  46. Stream size                              : 2.14 GiB (13%)
  47. Title                                    : DTS-HD MA 5.1
  48. Language                                 : English
  49. Default                                  : Yes
  50. Forced                                   : No
  51. Original source medium                   : Blu-ray
  52. Text #1
  53. ID                                       : 3
  54. Format                                   : UTF-8
  55. Codec ID                                 : S_TEXT/UTF8
  56. Codec ID/Info                            : UTF-8 Plain Text
  57. Duration                                 : 1 h 34 min
  58. Bit rate                                 : 78 b/s
  59. Count of elements                        : 1676
  60. Stream size                              : 53.9 KiB (0%)
  61. Title                                    : SRT
  62. Language                                 : English
  63. Default                                  : Yes
  64. Forced                                   : No
  65. Text #2
  66. ID                                       : 4
  67. ID in the original source medium         : 4608 (0x1200)
  68. Format                                   : PGS
  69. Muxing mode                              : zlib
  70. Codec ID                                 : S_HDMV/PGS
  71. Codec ID/Info                            : Picture based subtitle format used on BDs/HD-DVDs
  72. Duration                                 : 1 h 39 min
  73. Bit rate                                 : 33.5 kb/s
  74. Count of elements                        : 3689
  75. Stream size                              : 23.9 MiB (0%)
  76. Language                                 : English
  77. Default                                  : No
  78. Forced                                   : No
  79. Original source medium                   : Blu-ray
  80. Text #3
  81. ID                                       : 5
  82. ID in the original source medium         : 4609 (0x1201)
  83. Format                                   : PGS
  84. Muxing mode                              : zlib
  85. Codec ID                                 : S_HDMV/PGS
  86. Codec ID/Info                            : Picture based subtitle format used on BDs/HD-DVDs
  87. Duration                                 : 1 h 35 min
  88. Bit rate                                 : 33.7 kb/s
  89. Count of elements                        : 3258
  90. Stream size                              : 22.9 MiB (0%)
  91. Language                                 : French
  92. Default                                  : No
  93. Forced                                   : No
  94. Original source medium                   : Blu-ray
  95. Text #4
  96. ID                                       : 6
  97. ID in the original source medium         : 4610 (0x1202)
  98. Format                                   : PGS
  99. Muxing mode                              : zlib
  100. Codec ID                                 : S_HDMV/PGS
  101. Codec ID/Info                            : Picture based subtitle format used on BDs/HD-DVDs
  102. Duration                                 : 1 h 35 min
  103. Bit rate                                 : 29.0 kb/s
  104. Count of elements                        : 3100
  105. Stream size                              : 19.8 MiB (0%)
  106. Language                                 : Spanish
  107. Default                                  : No
  108. Forced                                   : No
  109. Original source medium                   : Blu-ray
  110. Menu
  111. 00:00:00.000                             : en:Chapter 01
  112. 00:24:54.701                             : en:Chapter 02
  113. 00:35:32.630                             : en:Chapter 03
  114. 00:47:46.405                             : en:Chapter 04
  115. 01:00:58.321                             : en:Chapter 05
  116. 01:15:18.305                             : en:Chapter 06
  117. 01:21:24.880                             : en:Chapter 07
  118. 01:35:47.366                             : en:Chapter 08
复制代码







                                       
                                       

                                       
                                       
                                       




回复

使用道具 举报

蓝光币
31
发表于 2021-11-1 14:21:00 | 显示全部楼层

这东西我收了!谢谢楼主!蓝光电影网真好!
回复 支持 反对

使用道具 举报

懒得打字嘛,点击右侧快捷回复 【右侧内容,后台自定义】
您需要登录后才可以回帖 登录 | 立即加入

本版积分规则

Archiver|小黑屋| 蓝光电影网 |网站地图

Copyright © 2021 Comsenz Inc. Powered by 蓝光电影网

蓝光电影网

本站内容由用户自主分享和转载自互联网,转载目的在于传递更多信息,并不代表本网赞同其观点和对其真实性负责。

如有侵权、违反国家法律政策行为,请联系我们,我们会第一时间及时清除和处理!

举报反馈邮箱:[email protected]

快速回复 返回顶部 返回列表