找回密码

蓝光电影网

查看: 368|回复: 1

[2160p-WEB] 鬼影实录6 Paranormal.Activity.Next.of.Kin.2021.2160p.WEB-DL.DDP5.1.DV.MP4.x265-DVSUX 10.50GB

[复制链接]
蓝光币
682
发表于 2021-10-29 20:59:00 | 显示全部楼层 |阅读模式


◎译  名 鬼影实录6
◎片  名 Paranormal Activity: Next of Kin
◎年  代 2021
◎产  地 美国
◎类  别 悬疑 / 惊悚 / 可骇
◎语  言 英语
◎上映日期 2021-10-29(美国)
◎豆瓣评分 /10 from 0 users
◎豆瓣链接 https://movie.douban.com/subject/34884170/
◎导  演 威廉·尤班克 William Eubank
◎编  剧 克里斯托弗·兰登 Christopher Landon
◎主  演 罗兰·巴克三世 Roland Buck III
       吉尔·安德烈 Jill Andre
       艾米丽·巴德 Emily Bader
       汤姆·诺维茨基 Tom Nowicki
       古纳尔·怀特 Gunner Wright
       克里·锡安 Kyli Zion
◎标  签 可骇 | 伪记载片 | 惊悚 | 灵异 | 美国 | 2021 | 美国电影 | 系列电影
◎简  介


  派拉蒙为下一部[鬼影实录]系列新电影定下2021年3月19日北美档期。[鬼影实录6]的导演和卡司今朝暂不得知。
  1. Video
  2. ID                                       : 1
  3. Format                                   : HEVC
  4. Format/Info                              : High Efficiency Video Coding
  5. Format profile                           : Main [email protected]@High
  6. HDR format                               : Dolby Vision, Version 1.0, dvhe.05.06, BL+RPU
  7. Codec ID                                 : dvhe
  8. Codec ID/Info                            : High Efficiency Video Coding with Dolby Vision
  9. Duration                                 : 1 h 38 min
  10. Bit rate                                 : 14.6 Mb/s
  11. Width                                    : 3 840 pixels
  12. Height                                   : 2 160 pixels
  13. Display aspect ratio                     : 16:9
  14. Frame rate mode                          : Constant
  15. Frame rate                               : 23.976 (24000/1001/189150) FPS
  16. Color space                              : YUV
  17. Chroma subsampling                       : 4:2:0 (Type 0)
  18. Bit depth                                : 10 bits
  19. Bits/(Pixel*Frame)                       : 0.074
  20. Stream size                              : 10.1 GiB (96%)
  21. Default                                  : Yes
  22. Alternate group                          : 1
  23. Encoded date                             : UTC 2021-10-29 05:30:28
  24. Tagged date                              : UTC 2021-10-29 05:38:12
  25. Color range                              : Full
  26. Codec configuration box                  : hvcC+dvcC

  27. Audio
  28. ID                                       : 2
  29. Format                                   : E-AC-3
  30. Format/Info                              : Enhanced AC-3
  31. Commercial name                          : Dolby Digital Plus
  32. Codec ID                                 : ec-3
  33. Duration                                 : 1 h 38 min
  34. Bit rate mode                            : Constant
  35. Bit rate                                 : 640 kb/s
  36. Maximum bit rate                         : 676 kb/s
  37. Channel(s)                               : 6 channels
  38. Channel layout                           : L R C LFE Ls Rs
  39. Sampling rate                            : 48.0 kHz
  40. Frame rate                               : 31.250 FPS (1536 SPF)
  41. Compression mode                         : Lossy
  42. Stream size                              : 451 MiB (4%)
  43. Title                                    : English
  44. Language                                 : English
  45. Service kind                             : Complete Main
  46. Default                                  : Yes
  47. Alternate group                          : 1
  48. Tagged date                              : UTC 2021-10-29 05:38:12

  49. Text
  50. ID                                       : 3
  51. Format                                   : Timed Text
  52. Codec ID                                 : tx3g
  53. Duration                                 : 1 h 34 min
  54. Bit rate mode                            : Variable
  55. Bit rate                                 : 58 b/s
  56. Stream size                              : 40.3 KiB (0%)
  57. Title                                    : English
  58. Language                                 : English
  59. Forced                                   : No
  60. Encoded date                             : UTC 2021-10-29 05:38:12
  61. Tagged date                              : UTC 2021-10-29 05:38:12
复制代码




                                       
                                       

                                       
                                       
                                       




回复

使用道具 举报

蓝光币
31
发表于 2021-10-29 22:05:41 | 显示全部楼层
楼主发贴辛苦了,谢谢楼主分享!我觉得蓝光电影网是注册对了!
回复 支持 反对

使用道具 举报

懒得打字嘛,点击右侧快捷回复 【右侧内容,后台自定义】
您需要登录后才可以回帖 登录 | 立即加入

本版积分规则

Archiver|小黑屋| 蓝光电影网 |网站地图

Copyright © 2021 Comsenz Inc. Powered by 蓝光电影网

蓝光电影网

本站内容由用户自主分享和转载自互联网,转载目的在于传递更多信息,并不代表本网赞同其观点和对其真实性负责。

如有侵权、违反国家法律政策行为,请联系我们,我们会第一时间及时清除和处理!

举报反馈邮箱:[email protected]

快速回复 返回顶部 返回列表