找回密码

蓝光电影网

查看: 354|回复: 0

[10bit.SDR] 悍女 Brimstone.2016.2160p.BluRay.x265.10bit.SDR.DTS-HD.MA.5.1-SWTYBLZ 58.61GB

[复制链接]
蓝光币
682
发表于 2021-10-29 21:17:34 | 显示全部楼层 |阅读模式


◎译  名 悍女/Koolhoven's Brimstone/炼狱之苦/石女/走过炼狱的女人(台)
◎片  名 Brimstone
◎年  代 2016
◎产  地 荷兰,法国,德国,比利时,瑞典,英国
◎类  别 悬疑 / 惊悚 / 西部
◎语  言 英语,荷兰语
◎上映日期 2016-09-03(威尼斯电影节) / 2017-01-12(荷兰)
◎豆瓣评分 6.8/10 from 3153 users
◎豆瓣链接 https://movie.douban.com/subject/6874166/
◎片  长 148分钟
◎导  演 马丁·寇霍文 Martin Koolhoven
◎编  剧 马丁·寇霍文 Martin Koolhoven
◎主  演 达科塔·范宁 Dakota Fanning
       盖·皮尔斯 Guy Pearce
       基特·哈灵顿 Kit Harington
       卡里斯·范·侯登 Carice van Houten
       保罗·安德森 Paul Anderson
       艾米莉亚·琼斯 Emilia Jones
       艾薇·乔治 Ivy George
       薇拉·维塔利 Vera Vitali
       威廉·休斯顿 William Houston
       卡拉·朱里 Carla Juri
       杰克·罗思 Jack Roth
       娜奥米·巴特里克 Naomi Battrick
       艾德里安·斯帕克斯 Adrian Sparks
       多里斯·洛夫 Dorian Lough
       杰克·霍林顿 Jack Hollington
       Alexandra Guelff Alexandra Guelff
       比尔·坦拉蒂 Bill Tangradi
       泰格·格南德特 Tygo Gernandt
◎标  签 西部 | 犯罪 | 惊悚 | 悬疑 | 荷兰 | 宗教 | 剧情 | 2016
◎简  介


  故事发生在十七世纪的美国西部小镇中,哑女丽姿(达科塔·范宁 Dakota Fanning 饰)和丈夫伊莱(威廉·休斯顿 William Houston 饰)带着他们的孩子们生活在那边。虽然日子清贫,而丽姿又天生得了残疾,可是两人都对今朝稳定的生活心满足足。
  
  一天,镇上来了一位神父(盖·皮尔斯 Guy Pearce 饰),在见到神父第一面时,丽姿就晓得,她的幸运生活将一去不复返,神父和丽姿到底有着怎样的过节以致于他要如此无情的迫害她和她的家人呢?丽姿是一位助产士,在一次手术中,孕妇出现了生命危险,在母亲和孩子只能保一个的情况下,丽姿挑选了庇护母亲,却不知,这挑选亦将她推向了万劫不复的深渊。
◎获奖情况
  第73届威尼斯电影节 ?(2016)
  主比赛单元金狮奖(提名) 马丁·寇霍文
  
  第30届欧洲电影奖 ?(2017)
  最好打扮设想
  1. Video
  2. ID                                       : 1
  3. Format                                   : HEVC
  4. Format/Info                              : High Efficiency Video Coding
  5. Format profile                           : Main [email protected]@High
  6. Codec ID                                 : V_MPEGH/ISO/HEVC
  7. Duration                                 : 2 h 28 min
  8. Bit rate                                 : 52.6 Mb/s
  9. Width                                    : 3 840 pixels
  10. Height                                   : 1 600 pixels
  11. Display aspect ratio                     : 2.40:1
  12. Frame rate mode                          : Constant
  13. Frame rate                               : 23.976 (24000/1001/189150) FPS
  14. Color space                              : YUV
  15. Chroma subsampling                       : 4:2:0
  16. Bit depth                                : 10 bits
  17. Bits/(Pixel*Frame)                       : 0.357
  18. Stream size                              : 54.6 GiB (94%)
  19. Writing library                          : x265 3.0ed72af837053:[Windows][GCC 8.2.0][64 bit] 10bit
  20. Encoding settings                        : cpuid=1111039 / frame-threads=6 / numa-pools=40 / wpp / no-pmode / no-pme / no-psnr / no-ssim / log-level=2 / input-csp=1 / input-res=3840x1600 / interlace=0 / total-frames=213649 / level-idc=51 / high-tier=1 / uhd-bd=0 / ref=3 / no-allow-non-conformance / repeat-headers / annexb / aud / hrd / info / hash=0 / no-temporal-layers / no-open-gop / min-keyint=1 / keyint=24 / gop-lookahead=0 / bframes=4 / b-adapt=2 / b-pyramid / bframe-bias=0 / rc-lookahead=25 / lookahead-slices=4 / scenecut=40 / radl=0 / no-splice / no-intra-refresh / ctu=64 / min-cu-size=8 / no-rect / no-amp / max-tu-size=32 / tu-inter-depth=1 / tu-intra-depth=1 / limit-tu=0 / rdoq-level=0 / dynamic-rd=0.00 / no-ssim-rd / signhide / no-tskip / nr-intra=0 / nr-inter=0 / no-constrained-intra / strong-intra-smoothing / max-merge=2 / limit-refs=3 / no-limit-modes / me=1 / subme=2 / merange=57 / temporal-mvp / weightp / no-weightb / no-analyze-src-pics / deblock=0:0 / no-sao / no-sao-non-deblock / rd=3 / no-early-skip / rskip / no-fast-intra / no-tskip-fast / no-cu-lossless / no-b-intra / no-splitrd-skip / rdpenalty=0 / psy-rd=2.00 / psy-rdoq=0.00 / no-rd-refine / no-lossless / cbqpoffs=0 / crqpoffs=0 / rc=crf / crf=16.0 / qcomp=0.60 / qpstep=4 / stats-write=0 / stats-read=0 / vbv-maxrate=160000 / vbv-bufsize=160000 / vbv-init=0.9 / crf-max=0.0 / crf-min=0.0 / ipratio=1.40 / pbratio=1.30 / aq-mode=1 / aq-strength=1.00 / cutree / zone-count=0 / no-strict-cbr / qg-size=32 / no-rc-grain / qpmax=69 / qpmin=0 / no-const-vbv / sar=1 / overscan=0 / videoformat=5 / range=0 / colorprim=2 / transfer=2 / colormatrix=2 / chromaloc=0 / display-window=0 / max-cll=0,0 / min-luma=0 / max-luma=1023 / log2-max-poc-lsb=8 / vui-timing-info / vui-hrd-info / slices=1 / opt-qp-pps / opt-ref-list-length-pps / no-multi-pass-opt-rps / scenecut-bias=0.05 / no-opt-cu-delta-qp / no-aq-motion / no-hdr / no-hdr-opt / no-dhdr10-opt / no-idr-recovery-sei / analysis-reuse-level=5 / scale-factor=0 / refine-intra=0 / refine-inter=0 / refine-mv=0 / refine-ctu-distortion=0 / no-limit-sao / ctu-info=0 / no-lowpass-dct / refine-analysis-type=0 / copy-pic=1 / max-ausize-factor=1.0 / no-dynamic-refine / no-single-sei / no-hevc-aq / qp-adaptation-range=1.00
  21. Default                                  : Yes
  22. Forced                                   : No
  23. Audio #1
  24. ID                                       : 2
  25. ID in the original source medium         : 4353 (0x1101)
  26. Format                                   : DTS XLL
  27. Format/Info                              : Digital Theater Systems
  28. Commercial name                          : DTS-HD Master Audio
  29. Codec ID                                 : A_DTS
  30. Duration                                 : 2 h 28 min
  31. Bit rate mode                            : Variable
  32. Bit rate                                 : 3 004 kb/s
  33. Channel(s)                               : 6 channels
  34. Channel layout                           : C L R Ls Rs LFE
  35. Sampling rate                            : 48.0 kHz
  36. Frame rate                               : 93.750 FPS (512 SPF)
  37. Bit depth                                : 24 bits
  38. Compression mode                         : Lossless
  39. Stream size                              : 3.12 GiB (5%)
  40. Title                                    : DTS-HD MA 5.1
  41. Language                                 : English
  42. Default                                  : Yes
  43. Forced                                   : No
  44. Original source medium                   : Blu-ray
  45. Audio #2
  46. ID                                       : 3
  47. Format                                   : AC-3
  48. Format/Info                              : Audio Coding 3
  49. Commercial name                          : Dolby Digital
  50. Codec ID                                 : A_AC3
  51. Duration                                 : 2 h 28 min
  52. Bit rate mode                            : Constant
  53. Bit rate                                 : 640 kb/s
  54. Channel(s)                               : 6 channels
  55. Channel layout                           : L R C LFE Ls Rs
  56. Sampling rate                            : 48.0 kHz
  57. Frame rate                               : 31.250 FPS (1536 SPF)
  58. Compression mode                         : Lossy
  59. Stream size                              : 680 MiB (1%)
  60. Title                                    : DD 5.1
  61. Language                                 : English
  62. Service kind                             : Complete Main
  63. Default                                  : No
  64. Forced                                   : No
  65. Text #1
  66. ID                                       : 4
  67. Format                                   : UTF-8
  68. Codec ID                                 : S_TEXT/UTF8
  69. Codec ID/Info                            : UTF-8 Plain Text
  70. Duration                                 : 2 h 0 min
  71. Bit rate                                 : 0 b/s
  72. Count of elements                        : 30
  73. Stream size                              : 809 Bytes (0%)
  74. Title                                    : FORCED
  75. Language                                 : English
  76. Default                                  : No
  77. Forced                                   : Yes
  78. Text #2
  79. ID                                       : 5
  80. Format                                   : UTF-8
  81. Codec ID                                 : S_TEXT/UTF8
  82. Codec ID/Info                            : UTF-8 Plain Text
  83. Duration                                 : 2 h 18 min
  84. Bit rate                                 : 27 b/s
  85. Count of elements                        : 849
  86. Stream size                              : 28.1 KiB (0%)
  87. Language                                 : English
  88. Default                                  : Yes
  89. Forced                                   : No
  90. Text #3
  91. ID                                       : 6
  92. ID in the original source medium         : 4768 (0x12A0)
  93. Format                                   : PGS
  94. Muxing mode                              : zlib
  95. Codec ID                                 : S_HDMV/PGS
  96. Codec ID/Info                            : Picture based subtitle format used on BDs/HD-DVDs
  97. Duration                                 : 2 h 18 min
  98. Bit rate                                 : 19.0 kb/s
  99. Count of elements                        : 2233
  100. Stream size                              : 18.9 MiB (0%)
  101. Language                                 : German
  102. Default                                  : No
  103. Forced                                   : No
  104. Original source medium                   : Blu-ray
  105. Menu
  106. 00:00:00.000                             : en:Chapter 01
  107. 00:02:01.121                             : en:Chapter 02
  108. 00:12:08.436                             : en:Chapter 03
  109. 00:24:12.868                             : en:Chapter 04
  110. 00:32:38.623                             : en:Chapter 05
  111. 00:42:40.474                             : en:Chapter 06
  112. 00:56:03.568                             : en:Chapter 07
  113. 01:09:09.103                             : en:Chapter 08
  114. 01:17:12.085                             : en:Chapter 09
  115. 01:24:54.255                             : en:Chapter 10
  116. 01:37:53.993                             : en:Chapter 11
  117. 01:50:46.723                             : en:Chapter 12
  118. 01:56:09.587                             : en:Chapter 13
  119. 02:03:23.604                             : en:Chapter 14
  120. 02:14:08.957                             : en:Chapter 15
  121. 02:20:12.278                             : en:Chapter 16
复制代码







                                       
                                       

                                       
                                       
                                       




回复

使用道具 举报

懒得打字嘛,点击右侧快捷回复 【右侧内容,后台自定义】
您需要登录后才可以回帖 登录 | 立即加入

本版积分规则

Archiver|小黑屋| 蓝光电影网 |网站地图

Copyright © 2021 Comsenz Inc. Powered by 蓝光电影网

蓝光电影网

本站内容由用户自主分享和转载自互联网,转载目的在于传递更多信息,并不代表本网赞同其观点和对其真实性负责。

如有侵权、违反国家法律政策行为,请联系我们,我们会第一时间及时清除和处理!

举报反馈邮箱:[email protected]

快速回复 返回顶部 返回列表