找回密码

蓝光电影网

查看: 312|回复: 4

[2160p-WEB] 静水城/斯蒂尔沃特 Stillwater.2021.2160p.WEB-DL.x265.10bit.HDR.DTS-HD.MA.5.1-NOGRP 27.60GB

[复制链接]
蓝光币
682
发表于 2021-10-29 21:15:33 | 显示全部楼层 |阅读模式


◎译  名 静水城/斯蒂尔沃特/止水/静水
◎片  名 Stillwater
◎年  代 2021
◎产  地 美国
◎类  别 剧情 / 惊悚 / 犯罪
◎语  言 英语
◎上映日期 2021-07-08(戛纳电影节) / 2021-07-30(美国)
◎豆瓣评分 7.1/10 from 8130 users
◎豆瓣链接 https://movie.douban.com/subject/34614665/
◎片  长 139分钟
◎导  演 汤姆·麦卡锡 Tom McCarthy
◎编  剧 汤姆·麦卡锡 Tom McCarthy / 马库斯·辛奇 Marcus Hinchey / 托马斯·彼得葛恩 Thomas Bidegain / 诺亚·德勃雷 Noé Debré
◎主  演 马特·达蒙 Matt Damon
       卡米尔·科坦 Camille Cottin
       阿比盖尔·布雷斯林 Abigail Breslin
       利鲁·肖沃 Lilou Siauvaud
       狄安娜·杜纳甘 Deanna Dunagan
       伊迪尔·阿祖格利 Idir Azougli
       安娜·勒尼 Anne Le Ny
       茂萨·马斯克里 Moussa Maaskri
       伊莎贝尔·塔纳克 Isabelle Tanakil
       奈德拉·阿亚迪 Naidra Ayadi
       吉尔伯特·特拉尼亚 Gilbert Traina
       威廉·纳迪兰 William Nadylam
       沙扎德·拉蒂夫 Shazad Latif
       米歇尔?邦波 Michel Bompoil
       莎拉·布鲁克斯 Sarah Brooks
       埃里克·斯达克 Eric Starkey
       罗伯特·皮特斯 Robert Peters
       Olivier Cruveiller Olivier Cruveiller
◎标  签 剧情 | 美国 | 犯罪 | 2021 | 悬疑 | 欧美 | 电影 | 惊悚
◎简  介


  影片围绕一个来自俄克拉荷马州的美国石油钻井平台钻工比尔(达蒙饰)展开。他不能不前往马赛,造访他久未碰面却锒铛入狱的女儿(布雷斯林饰),他的女儿坚称并没有犯下谋杀罪。面临说话的障碍、文化的差别,以及复杂的法令制度,比尔决意孤注一掷拯救他的女儿。而在这个进程中,他与一位当地的女性和她的小女儿建立了友谊,也起头了小我的摸索之旅,并获得了更大的归属感。
  1. Video
  2. ID                                       : 1
  3. Format                                   : HEVC
  4. Format/Info                              : High Efficiency Video Coding
  5. Format profile                           : Main [email protected]@High
  6. HDR format                               : SMPTE ST 2086, HDR10 compatible
  7. Codec ID                                 : V_MPEGH/ISO/HEVC
  8. Duration                                 : 2 h 19 min
  9. Bit rate                                 : 24.6 Mb/s
  10. Width                                    : 3 836 pixels
  11. Height                                   : 2 072 pixels
  12. Display aspect ratio                     : 1.85:1
  13. Frame rate mode                          : Constant
  14. Frame rate                               : 23.976 FPS
  15. Color space                              : YUV
  16. Chroma subsampling                       : 4:2:0 (Type 2)
  17. Bit depth                                : 10 bits
  18. Bits/(Pixel*Frame)                       : 0.129
  19. Stream size                              : 23.9 GiB (87%)
  20. Default                                  : Yes
  21. Forced                                   : No
  22. Color range                              : Limited
  23. Color primaries                          : BT.2020
  24. Transfer characteristics                 : PQ
  25. Matrix coefficients                      : BT.2020 non-constant
  26. Mastering display color primaries        : Display P3
  27. Mastering display luminance              : min: 0.0050 cd/m2, max: 1000 cd/m2
  28. Maximum Content Light Level              : 987 cd/m2
  29. Maximum Frame-Average Light Level        : 137 cd/m2

  30. Audio #1
  31. ID                                       : 2
  32. ID in the original source medium         : 4352 (0x1100)
  33. Format                                   : DTS XLL
  34. Format/Info                              : Digital Theater Systems
  35. Commercial name                          : DTS-HD Master Audio
  36. Codec ID                                 : A_DTS
  37. Duration                                 : 2 h 18 min
  38. Bit rate mode                            : Variable
  39. Bit rate                                 : 3 412 kb/s
  40. Channel(s)                               : 6 channels
  41. Channel layout                           : C L R Ls Rs LFE
  42. Sampling rate                            : 48.0 kHz
  43. Frame rate                               : 93.750 FPS (512 SPF)
  44. Bit depth                                : 24 bits
  45. Compression mode                         : Lossless
  46. Delay relative to video                  : 24 s 400 ms
  47. Stream size                              : 3.31 GiB (12%)
  48. Title                                    : DTS-HD MA 5.1
  49. Language                                 : English
  50. Default                                  : Yes
  51. Forced                                   : No
  52. Original source medium                   : Blu-ray

  53. Audio #2
  54. ID                                       : 3
  55. Format                                   : AC-3
  56. Format/Info                              : Audio Coding 3
  57. Commercial name                          : Dolby Digital
  58. Codec ID                                 : A_AC3
  59. Duration                                 : 2 h 19 min
  60. Bit rate mode                            : Constant
  61. Bit rate                                 : 384 kb/s
  62. Channel(s)                               : 6 channels
  63. Channel layout                           : L R C LFE Ls Rs
  64. Sampling rate                            : 48.0 kHz
  65. Frame rate                               : 31.250 FPS (1536 SPF)
  66. Compression mode                         : Lossy
  67. Stream size                              : 383 MiB (1%)
  68. Language                                 : English
  69. Service kind                             : Complete Main
  70. Default                                  : No
  71. Forced                                   : No

  72. Text #1
  73. ID                                       : 4
  74. Format                                   : UTF-8
  75. Codec ID                                 : S_TEXT/UTF8
  76. Codec ID/Info                            : UTF-8 Plain Text
  77. Duration                                 : 2 h 9 min
  78. Bit rate                                 : 41 b/s
  79. Count of elements                        : 1245
  80. Stream size                              : 39.3 KiB (0%)
  81. Title                                    : SRT
  82. Language                                 : English
  83. Default                                  : Yes
  84. Forced                                   : No

  85. Text #2
  86. ID                                       : 5
  87. Format                                   : UTF-8
  88. Codec ID                                 : S_TEXT/UTF8
  89. Codec ID/Info                            : UTF-8 Plain Text
  90. Duration                                 : 2 h 1 min
  91. Bit rate                                 : 10 b/s
  92. Count of elements                        : 273
  93. Stream size                              : 9.15 KiB (0%)
  94. Title                                    : Forced
  95. Language                                 : English
  96. Default                                  : No
  97. Forced                                   : Yes

  98. Text #3
  99. ID                                       : 6
  100. Format                                   : UTF-8
  101. Codec ID                                 : S_TEXT/UTF8
  102. Codec ID/Info                            : UTF-8 Plain Text
  103. Duration                                 : 2 h 9 min
  104. Bit rate                                 : 52 b/s
  105. Count of elements                        : 1818
  106. Stream size                              : 50.3 KiB (0%)
  107. Title                                    : Latin American
  108. Language                                 : Spanish
  109. Default                                  : No
  110. Forced                                   : No

  111. Text #4
  112. ID                                       : 7
  113. Format                                   : UTF-8
  114. Codec ID                                 : S_TEXT/UTF8
  115. Codec ID/Info                            : UTF-8 Plain Text
  116. Duration                                 : 2 h 16 min
  117. Bit rate                                 : 45 b/s
  118. Count of elements                        : 1400
  119. Stream size                              : 45.3 KiB (0%)
  120. Language                                 : Hungarian
  121. Default                                  : No
  122. Forced                                   : No

  123. Text #5
  124. ID                                       : 8
  125. Format                                   : UTF-8
  126. Codec ID                                 : S_TEXT/UTF8
  127. Codec ID/Info                            : UTF-8 Plain Text
  128. Duration                                 : 2 h 17 min
  129. Bit rate                                 : 48 b/s
  130. Count of elements                        : 1661
  131. Stream size                              : 48.6 KiB (0%)
  132. Title                                    : Brazilian
  133. Language                                 : Portuguese
  134. Default                                  : No
  135. Forced                                   : No

  136. Text #6
  137. ID                                       : 9
  138. Format                                   : UTF-8
  139. Codec ID                                 : S_TEXT/UTF8
  140. Codec ID/Info                            : UTF-8 Plain Text
  141. Duration                                 : 2 h 10 min
  142. Bit rate                                 : 118 b/s
  143. Count of elements                        : 1410
  144. Stream size                              : 113 KiB (0%)
  145. Language                                 : Thai
  146. Default                                  : No
  147. Forced                                   : No

  148. Menu
  149. 00:00:00.000                             : en:Chapter 01
  150. 00:08:14.786                             : en:Chapter 02
  151. 00:13:21.301                             : en:Chapter 03
  152. 00:22:41.361                             : en:Chapter 04
  153. 00:32:48.218                             : en:Chapter 05
  154. 00:38:09.914                             : en:Chapter 06
  155. 00:44:26.750                             : en:Chapter 07
  156. 00:49:29.886                             : en:Chapter 08
  157. 00:58:15.412                             : en:Chapter 09
  158. 01:03:43.573                             : en:Chapter 10
  159. 01:08:46.084                             : en:Chapter 11
  160. 01:16:30.298                             : en:Chapter 12
  161. 01:25:28.336                             : en:Chapter 13
  162. 01:32:40.643                             : en:Chapter 14
  163. 01:39:43.274                             : en:Chapter 15
  164. 01:45:51.559                             : en:Chapter 16
  165. 01:52:08.061                             : en:Chapter 17
  166. 02:01:21.489                             : en:Chapter 18
  167. 02:05:55.764                             : en:Chapter 19
  168. 02:12:32.869                             : en:Chapter 20
复制代码




                                       
                                       

                                       
                                       
                                       




回复

使用道具 举报

蓝光币
1569
发表于 2021-10-29 22:04:23 | 显示全部楼层
太好啦&萬分感謝版主的無私發佈分享%
回复 支持 反对

使用道具 举报

蓝光币
1
发表于 2021-10-30 16:08:35 | 显示全部楼层
太好啦&萬分感謝版主
回复 支持 反对

使用道具 举报

蓝光币
1569
发表于 2021-10-30 18:33:31 | 显示全部楼层
靜水城4k
回复

使用道具 举报

蓝光币
264
发表于 2021-10-30 19:45:17 | 显示全部楼层
找到了 感谢蓝光电影网
回复 支持 反对

使用道具 举报

懒得打字嘛,点击右侧快捷回复 【右侧内容,后台自定义】
您需要登录后才可以回帖 登录 | 立即加入

本版积分规则

Archiver|小黑屋| 蓝光电影网 |网站地图

Copyright © 2021 Comsenz Inc. Powered by 蓝光电影网

蓝光电影网

本站内容由用户自主分享和转载自互联网,转载目的在于传递更多信息,并不代表本网赞同其观点和对其真实性负责。

如有侵权、违反国家法律政策行为,请联系我们,我们会第一时间及时清除和处理!

举报反馈邮箱:[email protected]

快速回复 返回顶部 返回列表