找回密码

蓝光电影网

查看: 478|回复: 2

[10bit.SDR] 破胆三次/咆哮 The.Howling.1981.2160p.BluRay.x265.10bit.SDR.DTS-HD.MA.5.1-SWTYBLZ 47.71GB

[复制链接]
蓝光币
733
发表于 2021-10-29 23:15:30 | 显示全部楼层 |阅读模式


◎译  名 破胆三次/咆哮/狼人/群魔乱舞
◎片  名 The Howling
◎年  代 1981
◎产  地 美国
◎类  别 笑剧 / 悬疑 / 可骇
◎语  言 英语,西班牙语
◎上映日期 1981-01-21
◎豆瓣评分 6.3/10 from 353 users
◎豆瓣链接 https://movie.douban.com/subject/1303586/
◎片  长 91 分钟
◎导  演 乔·丹特 Joe Dante
◎编  剧 约翰·塞尔斯 John Sayles / Terence H. Winkless Terence H. Winkless
◎主  演 迪·沃伦斯 Dee Wallace
       帕特里克·麦克尼 Patrick Macnee
       丹尼斯·杜根 Dennis Dugan
       米萨克·泰勒 Meshach Taylor
       Bill Warren Bill Warren
       诺布尔·威林厄姆 Noble Willingham
       迪克·米勒 Dick Miller
       肯尼斯·托比 Kenneth Tobey
       克里斯托弗·斯通 Christopher Stone
       詹姆斯·墨塔夫 James Murtaugh
       斯利姆·佩金斯 Slim Pickens
       Robert A. Burns Robert A. Burns
       约翰·塞尔斯 John Sayles
       罗杰·科曼 Roger Corman
       乔纳森·卡普兰 Jonathan Kaplan
       约翰·卡拉丁 John Carradine
       福里斯特·J·阿克曼 Forrest J. Ackerman
       贝琳达·巴拉斯基 Belinda Balaski
       Elisabeth Brooks Elisabeth Brooks
       Joe Bratcher Joe Bratcher
       Herbie Braha Herbie Braha
       罗伯特·皮卡多 Robert Picardo
       萨丽娜·C·格兰特 Sarina C. Grant
       Margie Impert Margie Impert
       Jim McKrell Jim McKrell
       凯文·麦卡锡 Kevin McCarthy
◎标  签 可骇 | 美国 | 狼人 | 惊悚 | 1981 | 1980s | 美国电影 | 血腥
◎简  介


  After a bizarre and near deadly encounter with a serial killer, a television newswoman is sent to a remote mountain resort whose residents may not be what they seem.
  1. Video
  2. ID                                       : 1
  3. Format                                   : HEVC
  4. Format/Info                              : High Efficiency Video Coding
  5. Format profile                           : Main [email protected]@High
  6. Codec ID                                 : V_MPEGH/ISO/HEVC
  7. Duration                                 : 1 h 30 min
  8. Bit rate                                 : 70.5 Mb/s
  9. Width                                    : 3 840 pixels
  10. Height                                   : 2 076 pixels
  11. Display aspect ratio                     : 1.85:1
  12. Frame rate mode                          : Constant
  13. Frame rate                               : 24.000 FPS
  14. Color space                              : YUV
  15. Chroma subsampling                       : 4:2:0
  16. Bit depth                                : 10 bits
  17. Bits/(Pixel*Frame)                       : 0.369
  18. Stream size                              : 44.7 GiB (94%)
  19. Writing library                          : x265 3.0ed72af837053:[Windows][GCC 8.2.0][64 bit] 10bit
  20. Encoding settings                        : cpuid=1111039 / frame-threads=6 / numa-pools=40 / wpp / no-pmode / no-pme / no-psnr / no-ssim / log-level=2 / input-csp=1 / input-res=3840x2076 / interlace=0 / total-frames=130589 / level-idc=51 / high-tier=1 / uhd-bd=0 / ref=3 / no-allow-non-conformance / repeat-headers / annexb / aud / hrd / info / hash=0 / no-temporal-layers / no-open-gop / min-keyint=1 / keyint=24 / gop-lookahead=0 / bframes=4 / b-adapt=2 / b-pyramid / bframe-bias=0 / rc-lookahead=25 / lookahead-slices=4 / scenecut=40 / radl=0 / no-splice / no-intra-refresh / ctu=64 / min-cu-size=8 / no-rect / no-amp / max-tu-size=32 / tu-inter-depth=1 / tu-intra-depth=1 / limit-tu=0 / rdoq-level=0 / dynamic-rd=0.00 / no-ssim-rd / signhide / no-tskip / nr-intra=0 / nr-inter=0 / no-constrained-intra / strong-intra-smoothing / max-merge=2 / limit-refs=3 / no-limit-modes / me=1 / subme=2 / merange=57 / temporal-mvp / weightp / no-weightb / no-analyze-src-pics / deblock=0:0 / no-sao / no-sao-non-deblock / rd=3 / no-early-skip / rskip / no-fast-intra / no-tskip-fast / no-cu-lossless / no-b-intra / no-splitrd-skip / rdpenalty=0 / psy-rd=2.00 / psy-rdoq=0.00 / no-rd-refine / no-lossless / cbqpoffs=0 / crqpoffs=0 / rc=crf / crf=19.0 / qcomp=0.60 / qpstep=4 / stats-write=0 / stats-read=0 / vbv-maxrate=160000 / vbv-bufsize=160000 / vbv-init=0.9 / crf-max=0.0 / crf-min=0.0 / ipratio=1.40 / pbratio=1.30 / aq-mode=1 / aq-strength=1.00 / cutree / zone-count=0 / no-strict-cbr / qg-size=32 / no-rc-grain / qpmax=69 / qpmin=0 / no-const-vbv / sar=1 / overscan=0 / videoformat=5 / range=0 / colorprim=2 / transfer=2 / colormatrix=2 / chromaloc=0 / display-window=0 / max-cll=0,0 / min-luma=0 / max-luma=1023 / log2-max-poc-lsb=8 / vui-timing-info / vui-hrd-info / slices=1 / opt-qp-pps / opt-ref-list-length-pps / no-multi-pass-opt-rps / scenecut-bias=0.05 / no-opt-cu-delta-qp / no-aq-motion / no-hdr / no-hdr-opt / no-dhdr10-opt / no-idr-recovery-sei / analysis-reuse-level=5 / scale-factor=0 / refine-intra=0 / refine-inter=0 / refine-mv=0 / refine-ctu-distortion=0 / no-limit-sao / ctu-info=0 / no-lowpass-dct / refine-analysis-type=0 / copy-pic=1 / max-ausize-factor=1.0 / no-dynamic-refine / no-single-sei / no-hevc-aq / qp-adaptation-range=1.00
  21. Default                                  : Yes
  22. Forced                                   : No
  23. Audio #1
  24. ID                                       : 2
  25. ID in the original source medium         : 4353 (0x1101)
  26. Format                                   : DTS XLL
  27. Format/Info                              : Digital Theater Systems
  28. Commercial name                          : DTS-HD Master Audio
  29. Codec ID                                 : A_DTS
  30. Duration                                 : 1 h 30 min
  31. Bit rate mode                            : Variable
  32. Bit rate                                 : 3 670 kb/s
  33. Channel(s)                               : 6 channels
  34. Channel layout                           : C L R Ls Rs LFE
  35. Sampling rate                            : 48.0 kHz
  36. Frame rate                               : 93.750 FPS (512 SPF)
  37. Bit depth                                : 24 bits
  38. Compression mode                         : Lossless
  39. Stream size                              : 2.32 GiB (5%)
  40. Title                                    : DTS-HD MA 5.1
  41. Language                                 : English
  42. Default                                  : Yes
  43. Forced                                   : No
  44. Original source medium                   : Blu-ray
  45. Audio #2
  46. ID                                       : 3
  47. Format                                   : AC-3
  48. Format/Info                              : Audio Coding 3
  49. Commercial name                          : Dolby Digital
  50. Codec ID                                 : A_AC3
  51. Duration                                 : 1 h 30 min
  52. Bit rate mode                            : Constant
  53. Bit rate                                 : 640 kb/s
  54. Channel(s)                               : 6 channels
  55. Channel layout                           : L R C LFE Ls Rs
  56. Sampling rate                            : 48.0 kHz
  57. Frame rate                               : 31.250 FPS (1536 SPF)
  58. Compression mode                         : Lossy
  59. Stream size                              : 415 MiB (1%)
  60. Title                                    : DD 5.1
  61. Language                                 : English
  62. Service kind                             : Complete Main
  63. Default                                  : No
  64. Forced                                   : No
  65. Text #1
  66. ID                                       : 4
  67. Format                                   : UTF-8
  68. Codec ID                                 : S_TEXT/UTF8
  69. Codec ID/Info                            : UTF-8 Plain Text
  70. Duration                                 : 1 h 29 min
  71. Bit rate                                 : 36 b/s
  72. Count of elements                        : 675
  73. Stream size                              : 24.0 KiB (0%)
  74. Title                                    : SRT
  75. Language                                 : English
  76. Default                                  : No
  77. Forced                                   : No
  78. Text #2
  79. ID                                       : 5
  80. ID in the original source medium         : 4769 (0x12A1)
  81. Format                                   : PGS
  82. Muxing mode                              : zlib
  83. Codec ID                                 : S_HDMV/PGS
  84. Codec ID/Info                            : Picture based subtitle format used on BDs/HD-DVDs
  85. Duration                                 : 1 h 29 min
  86. Bit rate                                 : 22.1 kb/s
  87. Count of elements                        : 1350
  88. Stream size                              : 14.1 MiB (0%)
  89. Language                                 : English
  90. Default                                  : No
  91. Forced                                   : No
  92. Original source medium                   : Blu-ray
  93. Text #3
  94. ID                                       : 6
  95. ID in the original source medium         : 4768 (0x12A0)
  96. Format                                   : PGS
  97. Muxing mode                              : zlib
  98. Codec ID                                 : S_HDMV/PGS
  99. Codec ID/Info                            : Picture based subtitle format used on BDs/HD-DVDs
  100. Duration                                 : 1 h 29 min
  101. Bit rate                                 : 23.3 kb/s
  102. Count of elements                        : 1486
  103. Stream size                              : 15.0 MiB (0%)
  104. Language                                 : German
  105. Default                                  : No
  106. Forced                                   : No
  107. Original source medium                   : Blu-ray
  108. Text #4
  109. ID                                       : 7
  110. ID in the original source medium         : 4770 (0x12A2)
  111. Format                                   : PGS
  112. Muxing mode                              : zlib
  113. Codec ID                                 : S_HDMV/PGS
  114. Codec ID/Info                            : Picture based subtitle format used on BDs/HD-DVDs
  115. Duration                                 : 1 h 29 min
  116. Bit rate                                 : 19.3 kb/s
  117. Count of elements                        : 1618
  118. Stream size                              : 12.4 MiB (0%)
  119. Language                                 : French
  120. Default                                  : No
  121. Forced                                   : No
  122. Original source medium                   : Blu-ray
  123. Menu
  124. 00:00:00.000                             : en:Chapter 01
  125. 00:07:39.875                             : en:Chapter 02
  126. 00:14:53.791                             : en:Chapter 03
  127. 00:22:20.875                             : en:Chapter 04
  128. 00:30:05.208                             : en:Chapter 05
  129. 00:37:51.333                             : en:Chapter 06
  130. 00:45:32.625                             : en:Chapter 07
  131. 00:51:36.375                             : en:Chapter 08
  132. 01:00:58.250                             : en:Chapter 09
  133. 01:05:59.333                             : en:Chapter 10
  134. 01:15:12.541                             : en:Chapter 11
  135. 01:24:08.083                             : en:Chapter 12
复制代码










                                       
                                       

                                       
                                       
                                       




回复

使用道具 举报

蓝光币
156
发表于 2021-10-30 02:13:20 | 显示全部楼层

既然你诚信诚意的推荐了,那我就勉为其难的看看吧!蓝光电影网不走平凡路。
回复 支持 反对

使用道具 举报

蓝光币
2
发表于 2021-10-30 11:32:01 | 显示全部楼层
xiexielouzhu
回复 支持 反对

使用道具 举报

懒得打字嘛,点击右侧快捷回复 【右侧内容,后台自定义】
您需要登录后才可以回帖 登录 | 立即加入

本版积分规则

Archiver|小黑屋| 蓝光电影网 |网站地图

Copyright © 2021 Comsenz Inc. Powered by 蓝光电影网

蓝光电影网

本站内容由用户自主分享和转载自互联网,转载目的在于传递更多信息,并不代表本网赞同其观点和对其真实性负责。

如有侵权、违反国家法律政策行为,请联系我们,我们会第一时间及时清除和处理!

举报反馈邮箱:[email protected]

快速回复 返回顶部 返回列表