找回密码

蓝光电影网

查看: 227|回复: 0

[10bit.HDR] 破胆三次/咆哮 The.Howling.1981.2160p.UHD.BluRay.x265.10bit.HDR.DTS-HD.MA.5.1-HOWLING 33.12GB

[复制链接]
蓝光币
682
发表于 2021-10-29 23:10:52 | 显示全部楼层 |阅读模式


◎译  名 破胆三次/咆哮/狼人/群魔乱舞
◎片  名 The Howling
◎年  代 1981
◎产  地 美国
◎类  别 笑剧 / 悬疑 / 可骇
◎语  言 英语,西班牙语
◎上映日期 1981-01-21
◎豆瓣评分 6.3/10 from 353 users
◎豆瓣链接 https://movie.douban.com/subject/1303586/
◎片  长 91 分钟
◎导  演 乔·丹特 Joe Dante
◎编  剧 约翰·塞尔斯 John Sayles / Terence H. Winkless Terence H. Winkless
◎主  演 迪·沃伦斯 Dee Wallace
       帕特里克·麦克尼 Patrick Macnee
       丹尼斯·杜根 Dennis Dugan
       米萨克·泰勒 Meshach Taylor
       Bill Warren Bill Warren
       诺布尔·威林厄姆 Noble Willingham
       迪克·米勒 Dick Miller
       肯尼斯·托比 Kenneth Tobey
       克里斯托弗·斯通 Christopher Stone
       詹姆斯·墨塔夫 James Murtaugh
       斯利姆·佩金斯 Slim Pickens
       Robert A. Burns Robert A. Burns
       约翰·塞尔斯 John Sayles
       罗杰·科曼 Roger Corman
       乔纳森·卡普兰 Jonathan Kaplan
       约翰·卡拉丁 John Carradine
       福里斯特·J·阿克曼 Forrest J. Ackerman
       贝琳达·巴拉斯基 Belinda Balaski
       Elisabeth Brooks Elisabeth Brooks
       Joe Bratcher Joe Bratcher
       Herbie Braha Herbie Braha
       罗伯特·皮卡多 Robert Picardo
       萨丽娜·C·格兰特 Sarina C. Grant
       Margie Impert Margie Impert
       Jim McKrell Jim McKrell
       凯文·麦卡锡 Kevin McCarthy
◎标  签 可骇 | 美国 | 狼人 | 惊悚 | 1981 | 1980s | 美国电影 | 血腥
◎简  介


  After a bizarre and near deadly encounter with a serial killer, a television newswoman is sent to a remote mountain resort whose residents may not be what they seem.

  1. Video
  2. ID : 1
  3. Format : HEVC
  4. Format/Info : High Efficiency Video Coding
  5. Format profile : Main [email protected]@High
  6. HDR format : SMPTE ST 2086, HDR10 compatible
  7. Codec ID : V_MPEGH/ISO/HEVC
  8. Duration : 1 h 30 min
  9. Bit rate : 46.8 Mb/s
  10. Width : 3 840 pixels
  11. Height : 2 080 pixels
  12. Display aspect ratio : 1.85:1
  13. Frame rate mode : Constant
  14. Frame rate : 24.000 FPS
  15. Color space : YUV
  16. Chroma subsampling : 4:2:0 (Type 2)
  17. Bit depth : 10 bits
  18. Bits/(Pixel*Frame) : 0.244
  19. Stream size : 29.6 GiB (90%)
  20. Writing library : x265 3.5+13-4c6880de4:[Windows][MSVC 1929][64 bit] 10bit
  21. Encoding settings : cpuid=1111039 / frame-threads=6 / numa-pools=32 / wpp / no-pmode / no-pme / no-psnr / no-ssim / log-level=2 / input-csp=1 / input-res=3840x2080 / interlace=0 / total-frames=130589 / level-idc=51 / high-tier=1 / uhd-bd=0 / ref=4 / no-allow-non-conformance / repeat-headers / annexb / aud / no-eob / no-eos / hrd / info / hash=0 / no-temporal-layers / no-open-gop / min-keyint=24 / keyint=250 / gop-lookahead=0 / bframes=4 / b-adapt=2 / b-pyramid / bframe-bias=0 / rc-lookahead=25 / lookahead-slices=4 / scenecut=40 / no-hist-scenecut / radl=0 / no-splice / no-intra-refresh / ctu=64 / min-cu-size=8 / rect / no-amp / max-tu-size=32 / tu-inter-depth=1 / tu-intra-depth=1 / limit-tu=0 / rdoq-level=2 / dynamic-rd=0.00 / no-ssim-rd / signhide / no-tskip / nr-intra=0 / nr-inter=0 / no-constrained-intra / no-strong-intra-smoothing / max-merge=3 / limit-refs=3 / limit-modes / me=3 / subme=3 / merange=57 / temporal-mvp / no-frame-dup / no-hme / weightp / no-weightb / no-analyze-src-pics / deblock=-3:-3 / no-sao / no-sao-non-deblock / rd=4 / selective-sao=0 / no-early-skip / rskip / no-fast-intra / no-tskip-fast / no-cu-lossless / no-b-intra / no-splitrd-skip / rdpenalty=0 / psy-rd=2.00 / psy-rdoq=1.00 / no-rd-refine / no-lossless / cbqpoffs=0 / crqpoffs=0 / rc=crf / crf=18.5 / qcomp=0.60 / qpstep=4 / stats-write=0 / stats-read=0 / vbv-maxrate=160000 / vbv-bufsize=160000 / vbv-init=0.9 / min-vbv-fullness=50.0 / max-vbv-fullness=80.0 / crf-max=0.0 / crf-min=0.0 / ipratio=1.40 / pbratio=1.30 / aq-mode=2 / aq-strength=1.00 / cutree / zone-count=0 / no-strict-cbr / qg-size=32 / no-rc-grain / qpmax=69 / qpmin=0 / no-const-vbv / sar=1 / overscan=0 / videoformat=5 / range=0 / colorprim=9 / transfer=16 / colormatrix=9 / chromaloc=1 / chromaloc-top=2 / chromaloc-bottom=2 / display-window=0 / master-display=G(13250,34500)B(7500,3000)R(34000,16000)WP(15635,16450)L(10000000,01) / cll=9992,9984 / min-luma=0 / max-luma=1023 / log2-max-poc-lsb=8 / vui-timing-info / vui-hrd-info / slices=1 / no-opt-qp-pps / no-opt-ref-list-length-pps / no-multi-pass-opt-rps / scenecut-bias=0.05 / hist-threshold=0.03 / no-opt-cu-delta-qp / no-aq-motion / hdr10 / hdr10-opt / no-dhdr10-opt / no-idr-recovery-sei / analysis-reuse-level=0 / analysis-save-reuse-level=0 / analysis-load-reuse-level=0 / scale-factor=0 / refine-intra=0 / refine-inter=0 / refine-mv=1 / refine-ctu-distortion=0 / no-limit-sao / ctu-info=0 / no-lowpass-dct / refine-analysis-type=0 / copy-pic=1 / max-ausize-factor=1.0 / no-dynamic-refine / no-single-sei / no-hevc-aq / no-svt / no-field / qp-adaptation-range=1.00 / scenecut-aware-qp=0conformance-window-offsets / right=0 / bottom=0 / decoder-max-rate=0 / no-vbv-live-multi-pass
  22. Default : Yes
  23. Forced : No
  24. Color range : Limited
  25. Color primaries : BT.2020
  26. Transfer characteristics : PQ
  27. Matrix coefficients : BT.2020 non-constant
  28. Mastering display color primaries : Display P3
  29. Mastering display luminance : min: 0.0001 cd/m2, max: 1000 cd/m2
  30. Maximum Content Light Level : 9992 cd/m2
  31. Maximum Frame-Average Light Level : 9984 cd/m2

  32. Audio #1
  33. ID : 2
  34. Format : DTS XLL
  35. Format/Info : Digital Theater Systems
  36. Commercial name : DTS-HD Master Audio
  37. Codec ID : A_DTS
  38. Duration : 1 h 30 min
  39. Bit rate mode : Variable
  40. Bit rate : 3 670 kb/s
  41. Channel(s) : 6 channels
  42. Channel layout : C L R Ls Rs LFE
  43. Sampling rate : 48.0 kHz
  44. Frame rate : 93.750 FPS (512 SPF)
  45. Bit depth : 24 bits
  46. Compression mode : Lossless
  47. Stream size : 2.32 GiB (7%)
  48. Title : DTS-HD MA 5.1
  49. Language : English
  50. Default : Yes
  51. Forced : No

  52. Audio #2
  53. ID : 3
  54. Format : FLAC
  55. Format/Info : Free Lossless Audio Codec
  56. Codec ID : A_FLAC
  57. Duration : 1 h 30 min
  58. Bit rate mode : Variable
  59. Bit rate : 1 210 kb/s
  60. Channel(s) : 2 channels
  61. Channel layout : L R
  62. Sampling rate : 48.0 kHz
  63. Frame rate : 11.719 FPS (4096 SPF)
  64. Bit depth : 24 bits
  65. Compression mode : Lossless
  66. Stream size : 785 MiB (2%)
  67. Title : (Original Audio)
  68. Writing library : libFLAC 1.2.1 (UTC 2007-09-17)
  69. Language : English
  70. Default : Yes
  71. Forced : No

  72. Text #1
  73. ID : 4
  74. Format : PGS
  75. Muxing mode : zlib
  76. Codec ID : S_HDMV/PGS
  77. Codec ID/Info : Picture based subtitle format used on BDs/HD-DVDs
  78. Duration : 1 h 29 min
  79. Bit rate : 22.1 kb/s
  80. Count of elements : 1350
  81. Stream size : 14.1 MiB (0%)
  82. Title : English
  83. Language : English
  84. Default : No
  85. Forced : No

  86. Text #2
  87. ID : 5
  88. Format : PGS
  89. Muxing mode : zlib
  90. Codec ID : S_HDMV/PGS
  91. Codec ID/Info : Picture based subtitle format used on BDs/HD-DVDs
  92. Duration : 1 h 29 min
  93. Bit rate : 19.3 kb/s
  94. Count of elements : 1618
  95. Stream size : 12.4 MiB (0%)
  96. Title : French
  97. Language : French
  98. Default : No
  99. Forced : No

  100. Text #3
  101. ID : 6
  102. Format : PGS
  103. Muxing mode : zlib
  104. Codec ID : S_HDMV/PGS
  105. Codec ID/Info : Picture based subtitle format used on BDs/HD-DVDs
  106. Duration : 1 h 29 min
  107. Bit rate : 23.3 kb/s
  108. Count of elements : 1488
  109. Stream size : 15.0 MiB (0%)
  110. Title : German
  111. Language : German
  112. Default : No
  113. Forced : No

  114. Menu
  115. 00:00:00.000 : Chapter 01
  116. 00:07:39.875 : Chapter 02
  117. 00:14:53.792 : Chapter 03
  118. 00:22:20.875 : Chapter 04
  119. 00:30:05.208 : Chapter 05
  120. 00:37:51.375 : Chapter 06
  121. 00:45:32.625 : Chapter 07
  122. 00:51:36.708 : Chapter 08
  123. 01:00:58.250 : Chapter 09
  124. 01:05:59.708 : Chapter 10
  125. 01:15:12.542 : Chapter 11
  126. 01:24:08.083 : Chapter 12
  127. 00:10:00.000 : Chapter 13
复制代码





                                       
                                       
                                       




回复

使用道具 举报

懒得打字嘛,点击右侧快捷回复 【右侧内容,后台自定义】
您需要登录后才可以回帖 登录 | 立即加入

本版积分规则

Archiver|小黑屋| 蓝光电影网 |网站地图

Copyright © 2021 Comsenz Inc. Powered by 蓝光电影网

蓝光电影网

本站内容由用户自主分享和转载自互联网,转载目的在于传递更多信息,并不代表本网赞同其观点和对其真实性负责。

如有侵权、违反国家法律政策行为,请联系我们,我们会第一时间及时清除和处理!

举报反馈邮箱:[email protected]

快速回复 返回顶部 返回列表