找回密码

蓝光电影网

查看: 240|回复: 0

[剧情] 美好的四天/四个好日子 Four.Good.Days.2020.720p.BluRay.x264.DTS-MT 2.80GB

[复制链接]
蓝光币
733
发表于 2021-10-30 08:44:54 | 显示全部楼层 |阅读模式


◎译  名 美好的四天/四个好日子/美好四日
◎片  名 Four Good Days
◎年  代 2020
◎产  地 美国
◎类  别 剧情
◎语  言 英语
◎上映日期 2020-01-25(圣丹斯电影节) / 2021-04-30(美国) / 2021-05-21(美国收集)
◎豆瓣评分 6.7/10 from 330 users
◎豆瓣链接 https://movie.douban.com/subject/33451520/
◎片  长 100分钟
◎导  演 罗德里戈·加西亚 Rodrigo García
◎编  剧 罗德里戈·加西亚 Rodrigo García / 伊莱·萨斯洛 Eli Saslow
◎主  演 米拉·库尼斯 Mila Kunis
       格伦·克洛斯 Glenn Close
       斯蒂芬·鲁特 Stephen Root
       卡拉·盖洛 Carla Gallo
       迈克尔·凯悦 Michael Hyatt
       查德·林德伯格 Chad Lindberg
       维奥莱特·布林森 Violet Brinson
       乔舒华·莱纳德 Joshua Leonard
       尼娜·米林 Nina Millin
       丽贝卡·菲尔德 Rebecca Field
       格洛丽亚·加拉尤亚 Gloria Garayua
       卡洛斯·拉卡马拉 Carlos Lacamara
       曼迪·琼·特平 Mandy June Turpin
       丽贝卡·蒂尔尼 Rebecca Tilney
       山姆·亨宁斯 Sam Hennings
       尼古拉斯·奥特利 Nicholas Oteri
       卡洛斯·安东尼奥 Carlos Antonio
       森约·阿莫库 Senyo Amoaku
       凯伦·格拉西 Karen Graci
       布莱恩·肖托尔 Brian Shortall
◎标  签 家庭 | 剧情 | 美国 | 美国电影 | 人性 | 女性 | 2020 | 电影
◎简  介


  故事报告一位母亲(格伦·克洛斯 Glenn Close 饰)帮助女儿莫莉(米拉·库尼斯 Mila Kunis饰)度过从药物滥用中康复的关键四天。持久冷淡以后,她们在一路的时光不但抚平了相互酿成的疾苦创伤,也重燃了他们对相互最底子的、复杂的爱。
  
  本片按照普利策奖得主伊莱·萨斯洛的WaPo文章改编,加西亚将与其配合撰写剧本。
  1. Video
  2. ID                                       : 1
  3. Format                                   : AVC
  4. Format/Info                              : Advanced Video Codec
  5. Format profile                           : [email protected]
  6. Format settings                          : CABAC / 12 Ref Frames
  7. Format settings, CABAC                   : Yes
  8. Format settings, Reference frames        : 12 frames
  9. Codec ID                                 : V_MPEG4/ISO/AVC
  10. Duration                                 : 1 h 40 min
  11. Bit rate                                 : 2 474 kb/s
  12. Width                                    : 1 280 pixels
  13. Height                                   : 536 pixels
  14. Display aspect ratio                     : 2.40:1
  15. Frame rate mode                          : Constant
  16. Frame rate                               : 23.976 (24000/1001/189150) FPS
  17. Color space                              : YUV
  18. Chroma subsampling                       : 4:2:0
  19. Bit depth                                : 8 bits
  20. Scan type                                : Progressive
  21. Bits/(Pixel*Frame)                       : 0.150
  22. Stream size                              : 1.74 GiB (62%)
  23. Writing library                          : x264 core 157 r2938 2b00a84 [email protected] Mod
  24. Encoding settings                        : cabac=1 / ref=12 / deblock=1:-3:-3 / analyse=0x3:0x133 / me=umh / subme=10 / psy=1 / psy_rd=1.05:0.00 / mixed_ref=1 / me_range=32 / chroma_me=1 / trellis=2 / 8x8dct=1 / cqm=0 / deadzone=21,11 / fast_pskip=0 / chroma_qp_offset=-2 / threads=12 / lookahead_threads=2 / sliced_threads=0 / nr=0 / decimate=0 / interlaced=0 / bluray_compat=0 / constrained_intra=0 / bframes=8 / b_pyramid=2 / b_adapt=2 / b_bias=0 / direct=3 / weightb=1 / open_gop=0 / weightp=2 / keyint=250 / keyint_min=24 / scenecut=40 / intra_refresh=0 / rc_lookahead=250 / rc=crf / mbtree=0 / crf=16.8 / qcomp=0.60 / qpmin=0 / qpmax=69 / qpstep=4 / vbv_maxrate=62500 / vbv_bufsize=78125 / crf_max=0.0 / nal_hrd=none / filler=0 / ip_ratio=1.30 / pb_ratio=1.20 / aq=3:0.80
  25. Language                                 : English
  26. Default                                  : Yes
  27. Forced                                   : No
  28. Color range                              : Limited
  29. Color primaries                          : BT.709
  30. Matrix coefficients                      : BT.709
  31. Audio
  32. ID                                       : 2
  33. Format                                   : DTS
  34. Format/Info                              : Digital Theater Systems
  35. Codec ID                                 : A_DTS
  36. Duration                                 : 1 h 40 min
  37. Bit rate mode                            : Constant
  38. Bit rate                                 : 1 509 kb/s
  39. Channel(s)                               : 6 channels
  40. Channel layout                           : C L R Ls Rs LFE
  41. Sampling rate                            : 48.0 kHz
  42. Frame rate                               : 93.750 FPS (512 SPF)
  43. Bit depth                                : 24 bits
  44. Compression mode                         : Lossy
  45. Stream size                              : 1.06 GiB (38%)
  46. Language                                 : English
  47. Default                                  : Yes
  48. Forced                                   : No
  49. Text
  50. ID                                       : 3
  51. Format                                   : UTF-8
  52. Codec ID                                 : S_TEXT/UTF8
  53. Codec ID/Info                            : UTF-8 Plain Text
  54. Duration                                 : 1 h 32 min
  55. Bit rate                                 : 57 b/s
  56. Count of elements                        : 1347
  57. Stream size                              : 38.9 KiB (0%)
  58. Title                                    : SRT
  59. Language                                 : English
  60. Default                                  : Yes
  61. Forced                                   : No
  62. Menu
  63. 00:00:00.000                             : en:Chapter 01
  64. 00:08:47.736                             : en:Chapter 02
  65. 00:15:50.741                             : en:Chapter 03
  66. 00:26:19.411                             : en:Chapter 04
  67. 00:34:56.511                             : en:Chapter 05
  68. 00:47:41.525                             : en:Chapter 06
  69. 00:58:27.671                             : en:Chapter 07
  70. 01:05:08.404                             : en:Chapter 08
  71. 01:12:58.583                             : en:Chapter 09
  72. 01:22:45.335                             : en:Chapter 10
  73. 01:30:22.834                             : en:Chapter 11
  74. 01:36:32.078                             : en:Chapter 12
复制代码






                                       
                                       

                                       
                                       
                                       




回复

使用道具 举报

懒得打字嘛,点击右侧快捷回复 【右侧内容,后台自定义】
您需要登录后才可以回帖 登录 | 立即加入

本版积分规则

Archiver|小黑屋| 蓝光电影网 |网站地图

Copyright © 2021 Comsenz Inc. Powered by 蓝光电影网

蓝光电影网

本站内容由用户自主分享和转载自互联网,转载目的在于传递更多信息,并不代表本网赞同其观点和对其真实性负责。

如有侵权、违反国家法律政策行为,请联系我们,我们会第一时间及时清除和处理!

举报反馈邮箱:[email protected]

快速回复 返回顶部 返回列表