找回密码

蓝光电影网

查看: 124|回复: 0

[剧情] 谋杀就是谋杀 Murder.Is.a.Murder.1972.FRENCH.1080p.NF.WEBRip.DDP2.0.x264-NPMS 5.49GB

[复制链接]
蓝光币
682
发表于 2021-10-30 10:29:42 | 显示全部楼层 |阅读模式


◎译  名 谋杀就是谋杀
◎片  名 Un meurtre est un meurtre
◎年  代 1972
◎产  地 意大利,法国
◎类  别 剧情 / 悬疑 / 犯罪
◎语  言 法语
◎上映日期 1972-08-23(法国)
◎豆瓣评分 /10 from 0 users
◎豆瓣链接 https://movie.douban.com/subject/26336873/
◎片  长 90分钟
◎主  演 让-克洛德·布里亚利 Jean-Claude Brialy
       斯特凡·奥德朗 Stéphane Audran
       罗贝尔·侯赛因 Robert Hossein
       米歇尔·塞罗尔 Michel Serrault
       凯瑟琳·斯巴克 Catherine Spaak
       克洛德·夏布洛尔 Claude Chabrol
◎标  签 法国 | 意大利 | 被轻忽的电影 | 欧洲 | 悬疑 | 行动 | 剧情 | WEB
◎简  介


  暂无相关剧情先容
  1. Video
  2. ID                                       : 1
  3. Format                                   : AVC
  4. Format/Info                              : Advanced Video Codec
  5. Format profile                           : [email protected]
  6. Format settings                          : CABAC / 3 Ref Frames
  7. Format settings, CABAC                   : Yes
  8. Format settings, Reference frames        : 3 frames
  9. Codec ID                                 : V_MPEG4/ISO/AVC
  10. Duration                                 : 1 h 43 min
  11. Bit rate mode                            : Variable
  12. Bit rate                                 : 7 500 kb/s
  13. Maximum bit rate                         : 11.2 Mb/s
  14. Width                                    : 1 920 pixels
  15. Height                                   : 1 080 pixels
  16. Display aspect ratio                     : 16:9
  17. Frame rate mode                          : Constant
  18. Frame rate                               : 24.000 FPS
  19. Color space                              : YUV
  20. Chroma subsampling                       : 4:2:0
  21. Bit depth                                : 8 bits
  22. Scan type                                : Progressive
  23. Bits/(Pixel*Frame)                       : 0.151
  24. Stream size                              : 5.40 GiB (98%)
  25. Writing library                          : x264 core 148 r2722 1b0121b
  26. Encoding settings                        : cabac=1 / ref=3 / deblock=1:0:0 / analyse=0x1:0x111 / me=umh / subme=10 / psy=1 / psy_rd=1.00:0.00 / mixed_ref=1 / me_range=24 / chroma_me=1 / trellis=2 / 8x8dct=0 / cqm=0 / deadzone=21,11 / fast_pskip=1 / chroma_qp_offset=-2 / threads=8 / lookahead_threads=1 / sliced_threads=0 / nr=0 / decimate=1 / interlaced=0 / bluray_compat=0 / stitchable=1 / constrained_intra=0 / bframes=2 / b_pyramid=0 / b_adapt=2 / b_bias=0 / direct=3 / weightb=1 / open_gop=0 / weightp=2 / keyint=250 / keyint_min=24 / scenecut=0 / intra_refresh=0 / rc_lookahead=48 / rc=2pass / mbtree=1 / bitrate=7500 / ratetol=1.0 / qcomp=0.50 / qpmin=6 / qpmax=51 / qpstep=4 / cplxblur=20.0 / qblur=0.5 / vbv_maxrate=11250 / vbv_bufsize=15000 / nal_hrd=vbr / filler=0 / ip_ratio=1.40 / aq=1:1.00
  27. Default                                  : Yes
  28. Forced                                   : No
  29. Audio
  30. ID                                       : 2
  31. Format                                   : E-AC-3
  32. Format/Info                              : Enhanced AC-3
  33. Commercial name                          : Dolby Digital Plus
  34. Codec ID                                 : A_EAC3
  35. Duration                                 : 1 h 43 min
  36. Bit rate mode                            : Constant
  37. Bit rate                                 : 128 kb/s
  38. Channel(s)                               : 2 channels
  39. Channel layout                           : L R
  40. Sampling rate                            : 48.0 kHz
  41. Frame rate                               : 31.250 FPS (1536 SPF)
  42. Compression mode                         : Lossy
  43. Stream size                              : 94.4 MiB (2%)
  44. Title                                    : French (Parisian)
  45. Language                                 : French
  46. Service kind                             : Complete Main
  47. Default                                  : Yes
  48. Forced                                   : No
  49. Text #1
  50. ID                                       : 3
  51. Format                                   : UTF-8
  52. Codec ID                                 : S_TEXT/UTF8
  53. Codec ID/Info                            : UTF-8 Plain Text
  54. Duration                                 : 1 h 38 min
  55. Bit rate                                 : 48 b/s
  56. Count of elements                        : 1202
  57. Stream size                              : 35.2 KiB (0%)
  58. Title                                    : English
  59. Language                                 : English
  60. Default                                  : Yes
  61. Forced                                   : No
  62. Text #2
  63. ID                                       : 4
  64. Format                                   : UTF-8
  65. Codec ID                                 : S_TEXT/UTF8
  66. Codec ID/Info                            : UTF-8 Plain Text
  67. Duration                                 : 1 h 38 min
  68. Bit rate                                 : 42 b/s
  69. Count of elements                        : 1184
  70. Stream size                              : 30.7 KiB (0%)
  71. Title                                    : Croatian
  72. Language                                 : Croatian
  73. Default                                  : No
  74. Forced                                   : No
  75. Text #3
  76. ID                                       : 5
  77. Format                                   : UTF-8
  78. Codec ID                                 : S_TEXT/UTF8
  79. Codec ID/Info                            : UTF-8 Plain Text
  80. Duration                                 : 1 h 38 min
  81. Bit rate                                 : 47 b/s
  82. Count of elements                        : 1203
  83. Stream size                              : 34.2 KiB (0%)
  84. Title                                    : Czech
  85. Language                                 : Czech
  86. Default                                  : No
  87. Forced                                   : No
  88. Text #4
  89. ID                                       : 6
  90. Format                                   : UTF-8
  91. Codec ID                                 : S_TEXT/UTF8
  92. Codec ID/Info                            : UTF-8 Plain Text
  93. Duration                                 : 1 h 38 min
  94. Bit rate                                 : 44 b/s
  95. Count of elements                        : 1204
  96. Stream size                              : 31.9 KiB (0%)
  97. Title                                    : Danish
  98. Language                                 : Danish
  99. Default                                  : No
  100. Forced                                   : No
  101. Text #5
  102. ID                                       : 7
  103. Format                                   : UTF-8
  104. Codec ID                                 : S_TEXT/UTF8
  105. Codec ID/Info                            : UTF-8 Plain Text
  106. Duration                                 : 1 h 38 min
  107. Bit rate                                 : 48 b/s
  108. Count of elements                        : 1203
  109. Stream size                              : 35.1 KiB (0%)
  110. Title                                    : Dutch
  111. Language                                 : Dutch
  112. Default                                  : No
  113. Forced                                   : No
  114. Text #6
  115. ID                                       : 8
  116. Format                                   : UTF-8
  117. Codec ID                                 : S_TEXT/UTF8
  118. Codec ID/Info                            : UTF-8 Plain Text
  119. Duration                                 : 1 h 38 min
  120. Bit rate                                 : 42 b/s
  121. Count of elements                        : 1201
  122. Stream size                              : 30.9 KiB (0%)
  123. Title                                    : Finnish
  124. Language                                 : Finnish
  125. Default                                  : No
  126. Forced                                   : No
  127. Text #7
  128. ID                                       : 9
  129. Format                                   : UTF-8
  130. Codec ID                                 : S_TEXT/UTF8
  131. Codec ID/Info                            : UTF-8 Plain Text
  132. Duration                                 : 1 h 42 min
  133. Bit rate                                 : 62 b/s
  134. Count of elements                        : 1418
  135. Stream size                              : 46.9 KiB (0%)
  136. Title                                    : French (Parisian) (SDH)
  137. Language                                 : French
  138. Default                                  : No
  139. Forced                                   : No
  140. Text #8
  141. ID                                       : 10
  142. Format                                   : UTF-8
  143. Codec ID                                 : S_TEXT/UTF8
  144. Codec ID/Info                            : UTF-8 Plain Text
  145. Duration                                 : 1 h 38 min
  146. Bit rate                                 : 44 b/s
  147. Count of elements                        : 1183
  148. Stream size                              : 32.1 KiB (0%)
  149. Title                                    : Hungarian
  150. Language                                 : Hungarian
  151. Default                                  : No
  152. Forced                                   : No
  153. Text #9
  154. ID                                       : 11
  155. Format                                   : UTF-8
  156. Codec ID                                 : S_TEXT/UTF8
  157. Codec ID/Info                            : UTF-8 Plain Text
  158. Duration                                 : 1 h 38 min
  159. Bit rate                                 : 45 b/s
  160. Count of elements                        : 1153
  161. Stream size                              : 32.5 KiB (0%)
  162. Title                                    : Norwegian Bokmal
  163. Language                                 : Norwegian Bokmal
  164. Default                                  : No
  165. Forced                                   : No
  166. Text #10
  167. ID                                       : 12
  168. Format                                   : UTF-8
  169. Codec ID                                 : S_TEXT/UTF8
  170. Codec ID/Info                            : UTF-8 Plain Text
  171. Duration                                 : 1 h 38 min
  172. Bit rate                                 : 45 b/s
  173. Count of elements                        : 1199
  174. Stream size                              : 32.5 KiB (0%)
  175. Title                                    : Romanian
  176. Language                                 : Romanian
  177. Default                                  : No
  178. Forced                                   : No
  179. Text #11
  180. ID                                       : 13
  181. Format                                   : UTF-8
  182. Codec ID                                 : S_TEXT/UTF8
  183. Codec ID/Info                            : UTF-8 Plain Text
  184. Duration                                 : 1 h 40 min
  185. Bit rate                                 : 78 b/s
  186. Count of elements                        : 1207
  187. Stream size                              : 57.7 KiB (0%)
  188. Title                                    : Russian
  189. Language                                 : Russian
  190. Default                                  : No
  191. Forced                                   : No
  192. Text #12
  193. ID                                       : 14
  194. Format                                   : UTF-8
  195. Codec ID                                 : S_TEXT/UTF8
  196. Codec ID/Info                            : UTF-8 Plain Text
  197. Duration                                 : 1 h 38 min
  198. Bit rate                                 : 41 b/s
  199. Count of elements                        : 1131
  200. Stream size                              : 29.9 KiB (0%)
  201. Title                                    : Swedish
  202. Language                                 : Swedish
  203. Default                                  : No
  204. Forced                                   : No
  205. Menu
  206. 01:43:06.000                             : en:End Credits
复制代码






                                       
                                       

                                       
                                       
                                       




回复

使用道具 举报

懒得打字嘛,点击右侧快捷回复 【右侧内容,后台自定义】
您需要登录后才可以回帖 登录 | 立即加入

本版积分规则

Archiver|小黑屋| 蓝光电影网 |网站地图

Copyright © 2021 Comsenz Inc. Powered by 蓝光电影网

蓝光电影网

本站内容由用户自主分享和转载自互联网,转载目的在于传递更多信息,并不代表本网赞同其观点和对其真实性负责。

如有侵权、违反国家法律政策行为,请联系我们,我们会第一时间及时清除和处理!

举报反馈邮箱:[email protected]

快速回复 返回顶部 返回列表