找回密码

蓝光电影网

查看: 345|回复: 1

[剧情] 九天 Nine.Days.2020.1080p.BluRay.x264.DTS-HD.MA.5.1-MT 13.76GB

[复制链接]
蓝光币
682
发表于 2021-10-30 10:57:18 | 显示全部楼层 |阅读模式


◎译  名 九天
◎片  名 Nine Days
◎年  代 2020
◎产  地 美国
◎类  别 剧情 / 奇异
◎语  言 英语
◎上映日期 2020-01-27(圣丹斯电影节) / 2021-07-30(美国)
◎豆瓣评分 6.8/10 from 80 users
◎豆瓣链接 https://movie.douban.com/subject/34261430/
◎片  长 124分钟
◎导  演 小田埃德森 Edson Oda
◎编  剧 小田埃德森 Edson Oda
◎主  演 莎姬·贝兹 Zazie Beetz
       比尔·斯卡斯加德 Bill Skarsg?rd
       温斯顿·杜克 Winston Duke
       托尼·海尔 Tony Hale
       本尼迪克特·王 Benedict Wong
       杰拉尔丁·休斯 Geraldine Hughes
       大卫·里达尔 David Rysdahl
       罗根·史姑娘 Logan Smith
       约翰·福克 John Forker
       雷切尔·哈代 Rachelle Hardy
       戴夫·布雷斯纳安 Dave Bresnahan
       卡德罗莎·奥娜·卡罗尔
◎标  签 奇异 | 美国 | 科幻 | 2020 | 灭亡 | 圣丹斯电影节 | 美国电影 | 电影
◎简  介


  温斯顿·杜克、莎姬·贝兹、比尔·斯卡斯加德、本尼迪克特·王、大卫·里达尔将携手出演小田埃德森自编自导的导演童贞作[九天](Nine Days,暂译)。影片报告在一个阔别我们所认知的现实天下的屋子里,一个隐居的人(杜克饰)面见了人类灵魂化身的准候选人(贝兹、斯卡斯加德、王、里达尔饰),缘由是这小我已经具有的特权——生育。影片将于今夏开机。
◎获奖情况
  第36届圣丹斯电影节 ?(2020)
  评审团大奖剧情片(提名) 小田埃德森
  
  第36届美国自力精神奖 ?(2021)
  最好童贞作(提名)
  最好男配角(提名) 本尼迪克特·王
  1. Video
  2. ID                                       : 1
  3. Format                                   : AVC
  4. Format/Info                              : Advanced Video Codec
  5. Format profile                           : [email protected]
  6. Format settings                          : CABAC / 5 Ref Frames
  7. Format settings, CABAC                   : Yes
  8. Format settings, Reference frames        : 5 frames
  9. Codec ID                                 : V_MPEG4/ISO/AVC
  10. Duration                                 : 2 h 3 min
  11. Bit rate                                 : 12.8 Mb/s
  12. Width                                    : 1 920 pixels
  13. Height                                   : 804 pixels
  14. Display aspect ratio                     : 2.40:1
  15. Frame rate mode                          : Constant
  16. Frame rate                               : 23.976 (24000/1001/189150) FPS
  17. Color space                              : YUV
  18. Chroma subsampling                       : 4:2:0
  19. Bit depth                                : 8 bits
  20. Scan type                                : Progressive
  21. Bits/(Pixel*Frame)                       : 0.346
  22. Stream size                              : 11.1 GiB (81%)
  23. Writing library                          : x264 core 157 r2938 2b00a84 [email protected] Mod
  24. Encoding settings                        : cabac=1 / ref=5 / deblock=1:-3:-3 / analyse=0x3:0x133 / me=umh / subme=10 / psy=1 / psy_rd=1.05:0.00 / mixed_ref=1 / me_range=32 / chroma_me=1 / trellis=2 / 8x8dct=1 / cqm=0 / deadzone=21,11 / fast_pskip=0 / chroma_qp_offset=-2 / threads=12 / lookahead_threads=2 / sliced_threads=0 / nr=0 / decimate=0 / interlaced=0 / bluray_compat=0 / constrained_intra=0 / bframes=8 / b_pyramid=2 / b_adapt=2 / b_bias=0 / direct=3 / weightb=1 / open_gop=0 / weightp=2 / keyint=250 / keyint_min=24 / scenecut=40 / intra_refresh=0 / rc_lookahead=250 / rc=crf / mbtree=0 / crf=16.8 / qcomp=0.60 / qpmin=0 / qpmax=69 / qpstep=4 / vbv_maxrate=62500 / vbv_bufsize=78125 / crf_max=0.0 / nal_hrd=none / filler=0 / ip_ratio=1.30 / pb_ratio=1.20 / aq=3:0.80
  25. Language                                 : English
  26. Default                                  : Yes
  27. Forced                                   : No
  28. Color range                              : Limited
  29. Color primaries                          : BT.709
  30. Matrix coefficients                      : BT.709
  31. Audio
  32. ID                                       : 2
  33. Format                                   : DTS XLL
  34. Format/Info                              : Digital Theater Systems
  35. Commercial name                          : DTS-HD Master Audio
  36. Codec ID                                 : A_DTS
  37. Duration                                 : 2 h 3 min
  38. Bit rate mode                            : Variable
  39. Bit rate                                 : 3 074 kb/s
  40. Channel(s)                               : 6 channels
  41. Channel layout                           : C L R Ls Rs LFE
  42. Sampling rate                            : 48.0 kHz
  43. Frame rate                               : 93.750 FPS (512 SPF)
  44. Bit depth                                : 24 bits
  45. Compression mode                         : Lossless
  46. Stream size                              : 2.66 GiB (19%)
  47. Language                                 : English
  48. Default                                  : Yes
  49. Forced                                   : No
  50. Text #1
  51. ID                                       : 3
  52. Format                                   : UTF-8
  53. Codec ID                                 : S_TEXT/UTF8
  54. Codec ID/Info                            : UTF-8 Plain Text
  55. Duration                                 : 1 h 50 min
  56. Bit rate                                 : 40 b/s
  57. Count of elements                        : 1161
  58. Stream size                              : 33.1 KiB (0%)
  59. Title                                    : SRT
  60. Language                                 : English
  61. Default                                  : Yes
  62. Forced                                   : No
  63. Text #2
  64. ID                                       : 4
  65. Format                                   : PGS
  66. Muxing mode                              : zlib
  67. Codec ID                                 : S_HDMV/PGS
  68. Codec ID/Info                            : Picture based subtitle format used on BDs/HD-DVDs
  69. Duration                                 : 1 h 50 min
  70. Bit rate                                 : 25.9 kb/s
  71. Count of elements                        : 2416
  72. Stream size                              : 20.5 MiB (0%)
  73. Language                                 : English
  74. Default                                  : No
  75. Forced                                   : No
  76. Menu
  77. 00:00:00.000                             : en:Chapter 01
  78. 00:10:00.725                             : en:Chapter 02
  79. 00:20:01.492                             : en:Chapter 03
  80. 00:30:01.925                             : en:Chapter 04
  81. 00:40:02.650                             : en:Chapter 05
  82. 00:50:03.667                             : en:Chapter 06
  83. 01:00:04.518                             : en:Chapter 07
  84. 01:10:04.742                             : en:Chapter 08
  85. 01:20:05.009                             : en:Chapter 09
  86. 01:30:05.692                             : en:Chapter 10
  87. 01:40:06.751                             : en:Chapter 11
  88. 01:50:06.892                             : en:Chapter 12
  89. 02:00:07.492                             : en:Chapter 13
复制代码







                                       
                                       

                                       
                                       
                                       




回复

使用道具 举报

蓝光币
236
发表于 2021-11-1 05:20:44 | 显示全部楼层
楼主发贴辛苦了,谢谢楼主分享!我觉得蓝光电影网是注册对了!
回复 支持 反对

使用道具 举报

懒得打字嘛,点击右侧快捷回复 【右侧内容,后台自定义】
您需要登录后才可以回帖 登录 | 立即加入

本版积分规则

Archiver|小黑屋| 蓝光电影网 |网站地图

Copyright © 2021 Comsenz Inc. Powered by 蓝光电影网

蓝光电影网

本站内容由用户自主分享和转载自互联网,转载目的在于传递更多信息,并不代表本网赞同其观点和对其真实性负责。

如有侵权、违反国家法律政策行为,请联系我们,我们会第一时间及时清除和处理!

举报反馈邮箱:[email protected]

快速回复 返回顶部 返回列表