找回密码

蓝光电影网

查看: 352|回复: 1

[剧情] 危墙 The.Assassin.Next.Door.2009.1080p.BluRay.x264.DD5.1-PTP 9.34GB

[复制链接]
蓝光币
733
发表于 2021-10-30 11:07:30 | 显示全部楼层 |阅读模式


◎译  名 危墙/The Assassin Next Door/基洛特/邻家女刺客/邻家杀手(港)
◎片  名 Kirot
◎年  代 2009
◎产  地 以色列,法国,美国
◎类  别 剧情 / 行动
◎语  言 英语,希伯来语,俄语
◎上映日期 2009-12-03(以色列)
◎豆瓣评分 6.2/10 from 851 users
◎豆瓣链接 https://movie.douban.com/subject/3069316/
◎片  长 102 分钟(加拿大多伦多电影节 )
◎导  演 Danny Lerner Danny Lerner
◎编  剧 Danny Lerner Danny Lerner
◎主  演 欧嘉·柯瑞兰寇 Olga Kurylenko
       妮内特·塔伊布 Ninet Tayeb
       佐贺·史塔斯 Zohar Shtrauss
       李伦·勒夫 Liron Levo
        Lior Habra
       亨利·大卫 Henry David
◎标  签 以色列 | 犯罪 | 行动 | 女性 | 以色列电影 | 2009 | 欧嘉·柯瑞兰寇 | 欧嘉?克瑞兰蔻
◎简  介


  影片在希伯来语片名"Kirot"是“墙”的意义,意指片中两位女仆人公从素昧生平,隔墙交换,直至终极走到一路,一个要摆脱当地黑帮的控制、去俄罗斯与小女儿团圆,一个为了抵挡有严重凌虐偏向的丈夫,两个女报酬理想和保存而战,仿佛一部新版《末路狂花》。
  
  幕后建造
  
  影片由以色列、法国、美国合拍,片中对白以英语为主,还有希伯来语和俄语。执导本片的是以色列导演丹尼·勒纳,结业于特拉维夫大学电影系的他曾在2005年拍摄了童贞作《梦魇》,其作品布满复杂的社会元素及深层的心理描写,成为以色列新生代导演中的佼佼者,并在国际影坛暂露头角,《危墙》是他的第二部电影。
  1. Video
  2. ID                                       : 1
  3. Format                                   : AVC
  4. Format/Info                              : Advanced Video Codec
  5. Format profile                           : [email protected]
  6. Format settings                          : CABAC / 5 Ref Frames
  7. Format settings, CABAC                   : Yes
  8. Format settings, Reference frames        : 5 frames
  9. Codec ID                                 : V_MPEG4/ISO/AVC
  10. Duration                                 : 1 h 48 min
  11. Bit rate                                 : 11.9 Mb/s
  12. Width                                    : 1 920 pixels
  13. Height                                   : 818 pixels
  14. Display aspect ratio                     : 2.35:1
  15. Frame rate mode                          : Constant
  16. Frame rate                               : 23.976 (24000/1001/189150) FPS
  17. Color space                              : YUV
  18. Chroma subsampling                       : 4:2:0
  19. Bit depth                                : 8 bits
  20. Scan type                                : Progressive
  21. Bits/(Pixel*Frame)                       : 0.315
  22. Stream size                              : 9.00 GiB (96%)
  23. Writing library                          : x264 core 157 r2935 545de2f
  24. Encoding settings                        : cabac=1 / ref=5 / deblock=1:-3:-3 / analyse=0x3:0x133 / me=umh / subme=10 / psy=1 / psy_rd=1.00:0.00 / mixed_ref=1 / me_range=32 / chroma_me=1 / trellis=2 / 8x8dct=1 / cqm=0 / deadzone=21,11 / fast_pskip=0 / chroma_qp_offset=-2 / threads=6 / lookahead_threads=1 / sliced_threads=0 / nr=0 / decimate=1 / interlaced=0 / bluray_compat=0 / constrained_intra=0 / bframes=16 / b_pyramid=2 / b_adapt=2 / b_bias=0 / direct=3 / weightb=1 / open_gop=0 / weightp=2 / keyint=250 / keyint_min=23 / scenecut=40 / intra_refresh=0 / rc_lookahead=250 / rc=2pass / mbtree=1 / bitrate=11875 / ratetol=1.0 / qcomp=0.60 / qpmin=0 / qpmax=69 / qpstep=4 / cplxblur=20.0 / qblur=0.5 / vbv_maxrate=62500 / vbv_bufsize=78125 / nal_hrd=none / filler=0 / ip_ratio=1.40 / aq=3:0.80
  25. Language                                 : English
  26. Default                                  : Yes
  27. Forced                                   : No
  28. Color range                              : Limited
  29. Color primaries                          : BT.709
  30. Matrix coefficients                      : BT.709
  31. Audio
  32. ID                                       : 2
  33. Format                                   : AC-3
  34. Format/Info                              : Audio Coding 3
  35. Commercial name                          : Dolby Digital
  36. Codec ID                                 : A_AC3
  37. Duration                                 : 1 h 48 min
  38. Bit rate mode                            : Constant
  39. Bit rate                                 : 448 kb/s
  40. Channel(s)                               : 6 channels
  41. Channel layout                           : L R C LFE Ls Rs
  42. Sampling rate                            : 48.0 kHz
  43. Frame rate                               : 31.250 FPS (1536 SPF)
  44. Compression mode                         : Lossy
  45. Stream size                              : 348 MiB (4%)
  46. Language                                 : Multiple languages
  47. Service kind                             : Complete Main
  48. Default                                  : Yes
  49. Forced                                   : No
  50. Text #1
  51. ID                                       : 3
  52. Format                                   : UTF-8
  53. Codec ID                                 : S_TEXT/UTF8
  54. Codec ID/Info                            : UTF-8 Plain Text
  55. Duration                                 : 1 h 34 min
  56. Bit rate                                 : 11 b/s
  57. Count of elements                        : 290
  58. Stream size                              : 8.00 KiB (0%)
  59. Title                                    : Forced
  60. Language                                 : English
  61. Default                                  : Yes
  62. Forced                                   : Yes
  63. Text #2
  64. ID                                       : 4
  65. Format                                   : UTF-8
  66. Codec ID                                 : S_TEXT/UTF8
  67. Codec ID/Info                            : UTF-8 Plain Text
  68. Duration                                 : 1 h 37 min
  69. Bit rate                                 : 27 b/s
  70. Count of elements                        : 716
  71. Stream size                              : 19.8 KiB (0%)
  72. Language                                 : English
  73. Default                                  : No
  74. Forced                                   : No
  75. Menu
  76. 00:00:00.000                             : en:Chapter 1
  77. 00:06:52.621                             : en:Chapter 2
  78. 00:13:26.222                             : en:Chapter 3
  79. 00:20:27.768                             : en:Chapter 4
  80. 00:26:24.291                             : en:Chapter 5
  81. 00:33:27.505                             : en:Chapter 6
  82. 00:39:50.763                             : en:Chapter 7
  83. 00:46:03.094                             : en:Chapter 8
  84. 00:50:58.764                             : en:Chapter 9
  85. 00:58:47.607                             : en:Chapter 10
  86. 01:04:11.181                             : en:Chapter 11
  87. 01:10:28.933                             : en:Chapter 12
  88. 01:17:22.388                             : en:Chapter 13
  89. 01:24:46.999                             : en:Chapter 14
  90. 01:31:21.810                             : en:Chapter 15
  91. 01:42:58.297                             : en:Chapter 16
复制代码







                                       
                                       

                                       
                                       
                                       




回复

使用道具 举报

蓝光币
73
发表于 2021-10-30 22:58:02 | 显示全部楼层
感谢分享
回复

使用道具 举报

懒得打字嘛,点击右侧快捷回复 【右侧内容,后台自定义】
您需要登录后才可以回帖 登录 | 立即加入

本版积分规则

Archiver|小黑屋| 蓝光电影网 |网站地图

Copyright © 2021 Comsenz Inc. Powered by 蓝光电影网

蓝光电影网

本站内容由用户自主分享和转载自互联网,转载目的在于传递更多信息,并不代表本网赞同其观点和对其真实性负责。

如有侵权、违反国家法律政策行为,请联系我们,我们会第一时间及时清除和处理!

举报反馈邮箱:[email protected]

快速回复 返回顶部 返回列表