找回密码

蓝光电影网

查看: 436|回复: 1

[科幻] 警告 Warning.2021.1080p.BluRay.REMUX.AVC.DTS-HD.MA.5.1-FGT 19.78GB

[复制链接]
蓝光币
682
发表于 2021-10-30 11:21:44 | 显示全部楼层 |阅读模式


◎译  名 警告
◎片  名 Warning
◎年  代 2021
◎产  地 美国,加拿大
◎类  别 科幻 / 惊悚
◎语  言 英语
◎上映日期 2021-10-13(锡切斯奇异电影节) / 2021-10-22(美国)
◎豆瓣评分 5.0/10 from 303 users
◎豆瓣链接 https://movie.douban.com/subject/30321309/
◎片  长 85分钟
◎导  演 阿加塔?亚历山大 Agata Alexander
◎编  剧 阿加塔?亚历山大 Agata Alexander / 杰森?凯 Jason Kaye / 罗布·迈克尔森 Rob Michaelson
◎主  演 安娜贝拉·沃丽丝 Annabelle Wallis
       爱丽丝·伊芙 Alice Eve
       托马斯·简 Thomas Jane
       亚历克斯·帕蒂弗 Alex Pettyfer
       鲁伯特·艾弗雷特 Rupert Everett
       帕特里克·施瓦辛格 Patrick Schwarzenegger
       夏洛特·勒·邦 Charlotte Le Bon
       凯莉·班伯里 Kylie Bunbury
       本尼迪克特·萨缪尔 Benedict Samuel
       托马斯·科特 Tomasz Kot
       加朗斯·马里利埃 Garance Marillier
       托妮·伽恩 Toni Garrn
       安娜贝尔·穆利恩 Annabel Mullion
       理查德·帕蒂弗 Richard Pettyfer
◎标  签 科幻 | 美国 | 2021 | 美国电影 | 爱丽丝·伊芙 | 亚历克斯·帕蒂弗 | 鲁伯特·艾弗雷特 | 詹姆斯·达西
◎简  介


  亚历克斯·帕蒂弗(《关键第四号》《魔力麦克》)、夏洛特·勒·邦(《云中行走》《伊夫圣罗兰传》)加盟科幻新片《警告》(Warning),詹姆斯·达西、劳拉·哈里尔、梅纳·马苏德(《阿拉丁》)参演,艺术家Agata Alexander献出电影长片导演首秀,并与Rob Michaelson、Jason Kaye编写剧本,冬季罗马尼亚开拍。
  
  该片气概类似《黑镜》,设定在不远的未来的地球上,探讨当截然分歧的生活发生碰撞时,孤独、灭亡和生命的意义。
  1. Video
  2. ID                                       : 1
  3. ID in the original source medium         : 4113 (0x1011)
  4. Format                                   : AVC
  5. Format/Info                              : Advanced Video Codec
  6. Format profile                           : [email protected]
  7. Format settings                          : CABAC / 4 Ref Frames
  8. Format settings, CABAC                   : Yes
  9. Format settings, Reference frames        : 4 frames
  10. Codec ID                                 : V_MPEG4/ISO/AVC
  11. Duration                                 : 1 h 25 min
  12. Bit rate mode                            : Variable
  13. Bit rate                                 : 29.9 Mb/s
  14. Maximum bit rate                         : 37.0 Mb/s
  15. Width                                    : 1 920 pixels
  16. Height                                   : 1 080 pixels
  17. Display aspect ratio                     : 16:9
  18. Frame rate mode                          : Constant
  19. Frame rate                               : 23.976 (24000/1001/189150) FPS
  20. Color space                              : YUV
  21. Chroma subsampling                       : 4:2:0
  22. Bit depth                                : 8 bits
  23. Scan type                                : Progressive
  24. Bits/(Pixel*Frame)                       : 0.601
  25. Stream size                              : 17.9 GiB (90%)
  26. Language                                 : English
  27. Default                                  : No
  28. Forced                                   : No
  29. Original source medium                   : Blu-ray
  30. Audio
  31. ID                                       : 2
  32. ID in the original source medium         : 4352 (0x1100)
  33. Format                                   : DTS XLL
  34. Format/Info                              : Digital Theater Systems
  35. Commercial name                          : DTS-HD Master Audio
  36. Codec ID                                 : A_DTS
  37. Duration                                 : 1 h 25 min
  38. Bit rate mode                            : Variable
  39. Bit rate                                 : 3 119 kb/s
  40. Channel(s)                               : 6 channels
  41. Channel layout                           : C L R Ls Rs LFE
  42. Sampling rate                            : 48.0 kHz
  43. Frame rate                               : 93.750 FPS (512 SPF)
  44. Bit depth                                : 24 bits
  45. Compression mode                         : Lossless
  46. Stream size                              : 1.86 GiB (9%)
  47. Title                                    : DTS-HD MA 5.1
  48. Language                                 : English
  49. Default                                  : Yes
  50. Forced                                   : No
  51. Original source medium                   : Blu-ray
  52. Text #1
  53. ID                                       : 3
  54. Format                                   : UTF-8
  55. Codec ID                                 : S_TEXT/UTF8
  56. Codec ID/Info                            : UTF-8 Plain Text
  57. Duration                                 : 1 h 18 min
  58. Bit rate                                 : 46 b/s
  59. Count of elements                        : 830
  60. Stream size                              : 26.5 KiB (0%)
  61. Title                                    : SRT
  62. Language                                 : English
  63. Default                                  : Yes
  64. Forced                                   : No
  65. Text #2
  66. ID                                       : 4
  67. ID in the original source medium         : 4608 (0x1200)
  68. Format                                   : PGS
  69. Muxing mode                              : zlib
  70. Codec ID                                 : S_HDMV/PGS
  71. Codec ID/Info                            : Picture based subtitle format used on BDs/HD-DVDs
  72. Duration                                 : 1 h 18 min
  73. Bit rate                                 : 33.4 kb/s
  74. Count of elements                        : 2046
  75. Stream size                              : 18.8 MiB (0%)
  76. Language                                 : English
  77. Default                                  : No
  78. Forced                                   : No
  79. Original source medium                   : Blu-ray
  80. Text #3
  81. ID                                       : 5
  82. ID in the original source medium         : 4609 (0x1201)
  83. Format                                   : PGS
  84. Muxing mode                              : zlib
  85. Codec ID                                 : S_HDMV/PGS
  86. Codec ID/Info                            : Picture based subtitle format used on BDs/HD-DVDs
  87. Duration                                 : 1 h 22 min
  88. Bit rate                                 : 26.7 kb/s
  89. Count of elements                        : 1680
  90. Stream size                              : 15.8 MiB (0%)
  91. Language                                 : Spanish
  92. Default                                  : No
  93. Forced                                   : No
  94. Original source medium                   : Blu-ray
  95. Menu
  96. 00:00:00.000                             : en:Chapter 01
  97. 00:04:18.633                             : en:Chapter 02
  98. 00:08:46.984                             : en:Chapter 03
  99. 00:13:54.375                             : en:Chapter 04
  100. 00:19:49.855                             : en:Chapter 05
  101. 00:23:21.024                             : en:Chapter 06
  102. 00:26:17.826                             : en:Chapter 07
  103. 00:30:25.365                             : en:Chapter 08
  104. 00:35:05.520                             : en:Chapter 09
  105. 00:43:54.673                             : en:Chapter 10
  106. 00:48:34.536                             : en:Chapter 11
  107. 00:54:30.976                             : en:Chapter 12
  108. 00:59:13.216                             : en:Chapter 13
  109. 01:04:56.559                             : en:Chapter 14
  110. 01:13:07.466                             : en:Chapter 15
  111. 01:17:13.545                             : en:Chapter 16
复制代码







                                       
                                       

                                       
                                       
                                       




回复

使用道具 举报

蓝光币
27
发表于 2021-11-1 14:16:21 | 显示全部楼层

这东西我收了!谢谢楼主!蓝光电影网真好!
回复 支持 反对

使用道具 举报

懒得打字嘛,点击右侧快捷回复 【右侧内容,后台自定义】
您需要登录后才可以回帖 登录 | 立即加入

本版积分规则

Archiver|小黑屋| 蓝光电影网 |网站地图

Copyright © 2021 Comsenz Inc. Powered by 蓝光电影网

蓝光电影网

本站内容由用户自主分享和转载自互联网,转载目的在于传递更多信息,并不代表本网赞同其观点和对其真实性负责。

如有侵权、违反国家法律政策行为,请联系我们,我们会第一时间及时清除和处理!

举报反馈邮箱:[email protected]

快速回复 返回顶部 返回列表