找回密码

蓝光电影网

查看: 561|回复: 2

[2160p-WEB] 鬼影实录6 Paranormal.Activity.Next.of.Kin.2021.2160p.WEB-DL.DDP5.1.DV.MKV.x265-DVSUX 10.50GB

[复制链接]
蓝光币
682
发表于 2021-10-30 11:31:45 | 显示全部楼层 |阅读模式


◎译  名 鬼影实录6
◎片  名 Paranormal Activity: Next of Kin
◎年  代 2021
◎产  地 美国
◎类  别 悬疑 / 惊悚 / 可骇
◎语  言 英语
◎上映日期 2021-10-29(美国)
◎豆瓣评分 /10 from 0 users
◎豆瓣链接 https://movie.douban.com/subject/34884170/
◎导  演 威廉·尤班克 William Eubank
◎编  剧 克里斯托弗·兰登 Christopher Landon
◎主  演 罗兰·巴克三世 Roland Buck III
       吉尔·安德烈 Jill Andre
       艾米丽·巴德 Emily Bader
       汤姆·诺维茨基 Tom Nowicki
       古纳尔·怀特 Gunner Wright
       克里·锡安 Kyli Zion
◎标  签 可骇 | 伪记载片 | 惊悚 | 灵异 | 美国 | 2021 | 美国电影 | 系列电影
◎简  介


  派拉蒙为下一部[鬼影实录]系列新电影定下2021年3月19日北美档期。[鬼影实录6]的导演和卡司今朝暂不得知。
  1. Video
  2. ID                                       : 1
  3. Format                                   : HEVC
  4. Format/Info                              : High Efficiency Video Coding
  5. Format profile                           : Main [email protected]@High
  6. HDR format                               : Dolby Vision, Version 1.0, dvhe.05.06, BL+RPU
  7. Codec ID                                 : V_MPEGH/ISO/HEVC
  8. Duration                                 : 1 h 38 min
  9. Bit rate                                 : 14.6 Mb/s
  10. Width                                    : 3 840 pixels
  11. Height                                   : 2 160 pixels
  12. Display aspect ratio                     : 16:9
  13. Frame rate mode                          : Constant
  14. Frame rate                               : 23.976 (24000/1001/189150) FPS
  15. Color space                              : YUV
  16. Chroma subsampling                       : 4:2:0 (Type 0)
  17. Bit depth                                : 10 bits
  18. Bits/(Pixel*Frame)                       : 0.074
  19. Stream size                              : 10.1 GiB (96%)
  20. Default                                  : Yes
  21. Forced                                   : No
  22. Color range                              : Full

  23. Audio
  24. ID                                       : 2
  25. Format                                   : E-AC-3
  26. Format/Info                              : Enhanced AC-3
  27. Commercial name                          : Dolby Digital Plus
  28. Codec ID                                 : A_EAC3
  29. Duration                                 : 1 h 38 min
  30. Bit rate mode                            : Constant
  31. Bit rate                                 : 640 kb/s
  32. Channel(s)                               : 6 channels
  33. Channel layout                           : L R C LFE Ls Rs
  34. Sampling rate                            : 48.0 kHz
  35. Frame rate                               : 31.250 FPS (1536 SPF)
  36. Compression mode                         : Lossy
  37. Stream size                              : 451 MiB (4%)
  38. Language                                 : English
  39. Service kind                             : Complete Main
  40. Default                                  : Yes
  41. Forced                                   : No

  42. Text
  43. ID                                       : 3
  44. Format                                   : UTF-8
  45. Codec ID                                 : S_TEXT/UTF8
  46. Codec ID/Info                            : UTF-8 Plain Text
  47. Duration                                 : 1 h 33 min
  48. Bit rate                                 : 57 b/s
  49. Count of elements                        : 1631
  50. Stream size                              : 39.3 KiB (0%)
  51. Title                                    : English
  52. Language                                 : English
  53. Default                                  : No
  54. Forced                                   : No
复制代码




                                       
                                       

                                       
                                       
                                       




回复

使用道具 举报

蓝光币
33
发表于 2021-10-30 12:48:18 | 显示全部楼层
没有剧情介绍和剧透....
回复 支持 反对

使用道具 举报

蓝光币
26
发表于 2021-11-1 00:36:35 | 显示全部楼层
初初的新鲜感很好后来就。。。
回复 支持 反对

使用道具 举报

懒得打字嘛,点击右侧快捷回复 【右侧内容,后台自定义】
您需要登录后才可以回帖 登录 | 立即加入

本版积分规则

Archiver|小黑屋| 蓝光电影网 |网站地图

Copyright © 2021 Comsenz Inc. Powered by 蓝光电影网

蓝光电影网

本站内容由用户自主分享和转载自互联网,转载目的在于传递更多信息,并不代表本网赞同其观点和对其真实性负责。

如有侵权、违反国家法律政策行为,请联系我们,我们会第一时间及时清除和处理!

举报反馈邮箱:[email protected]

快速回复 返回顶部 返回列表