找回密码

蓝光电影网

查看: 524|回复: 2

[8bit.SDR] 悍女 Brimstone.2016.2160p.BluRay.x264.8bit.SDR.DTS-HD.MA.5.1-SWTYBLZ 64.68GB

[复制链接]
蓝光币
682
发表于 2021-10-30 11:37:42 | 显示全部楼层 |阅读模式


◎译  名 悍女/Koolhoven's Brimstone/炼狱之苦/石女/走过炼狱的女人(台)
◎片  名 Brimstone
◎年  代 2016
◎产  地 荷兰,法国,德国,比利时,瑞典,英国
◎类  别 悬疑 / 惊悚 / 西部
◎语  言 英语,荷兰语
◎上映日期 2016-09-03(威尼斯电影节) / 2017-01-12(荷兰)
◎豆瓣评分 6.8/10 from 3154 users
◎豆瓣链接 https://movie.douban.com/subject/6874166/
◎片  长 148分钟
◎导  演 马丁·寇霍文 Martin Koolhoven
◎编  剧 马丁·寇霍文 Martin Koolhoven
◎主  演 达科塔·范宁 Dakota Fanning
       盖·皮尔斯 Guy Pearce
       基特·哈灵顿 Kit Harington
       卡里斯·范·侯登 Carice van Houten
       保罗·安德森 Paul Anderson
       艾米莉亚·琼斯 Emilia Jones
       艾薇·乔治 Ivy George
       薇拉·维塔利 Vera Vitali
       威廉·休斯顿 William Houston
       卡拉·朱里 Carla Juri
       杰克·罗思 Jack Roth
       娜奥米·巴特里克 Naomi Battrick
       艾德里安·斯帕克斯 Adrian Sparks
       多里斯·洛夫 Dorian Lough
       杰克·霍林顿 Jack Hollington
       Alexandra Guelff Alexandra Guelff
       比尔·坦拉蒂 Bill Tangradi
       泰格·格南德特 Tygo Gernandt
◎标  签 西部 | 犯罪 | 惊悚 | 悬疑 | 荷兰 | 宗教 | 剧情 | 2016
◎简  介


  故事发生在十七世纪的美国西部小镇中,哑女丽姿(达科塔·范宁 Dakota Fanning 饰)和丈夫伊莱(威廉·休斯顿 William Houston 饰)带着他们的孩子们生活在那边。虽然日子清贫,而丽姿又天生得了残疾,可是两人都对今朝稳定的生活心满足足。
  
  一天,镇上来了一位神父(盖·皮尔斯 Guy Pearce 饰),在见到神父第一面时,丽姿就晓得,她的幸运生活将一去不复返,神父和丽姿到底有着怎样的过节以致于他要如此无情的迫害她和她的家人呢?丽姿是一位助产士,在一次手术中,孕妇出现了生命危险,在母亲和孩子只能保一个的情况下,丽姿挑选了庇护母亲,却不知,这挑选亦将她推向了万劫不复的深渊。
◎获奖情况
  第73届威尼斯电影节 ?(2016)
  主比赛单元金狮奖(提名) 马丁·寇霍文
  
  第30届欧洲电影奖 ?(2017)
  最好打扮设想
  1. Video
  2. ID                                       : 1
  3. Format                                   : AVC
  4. Format/Info                              : Advanced Video Codec
  5. Format profile                           : [email protected]
  6. Format settings                          : CABAC / 5 Ref Frames
  7. Format settings, CABAC                   : Yes
  8. Format settings, Reference frames        : 5 frames
  9. Codec ID                                 : V_MPEG4/ISO/AVC
  10. Duration                                 : 2 h 28 min
  11. Bit rate                                 : 58.5 Mb/s
  12. Width                                    : 3 840 pixels
  13. Height                                   : 1 600 pixels
  14. Display aspect ratio                     : 2.40:1
  15. Frame rate mode                          : Constant
  16. Frame rate                               : 23.976 (24000/1001/189150) FPS
  17. Color space                              : YUV
  18. Chroma subsampling                       : 4:2:0
  19. Bit depth                                : 8 bits
  20. Scan type                                : Progressive
  21. Bits/(Pixel*Frame)                       : 0.397
  22. Stream size                              : 60.6 GiB (94%)
  23. Writing library                          : x264 core 157 r2935 545de2f
  24. Encoding settings                        : cabac=1 / ref=5 / deblock=1:-1:-1 / analyse=0x3:0x113 / me=umh / subme=10 / psy=1 / psy_rd=1.00:0.15 / mixed_ref=1 / me_range=48 / chroma_me=1 / trellis=2 / 8x8dct=1 / cqm=0 / deadzone=21,11 / fast_pskip=1 / chroma_qp_offset=-3 / threads=48 / lookahead_threads=4 / sliced_threads=0 / nr=0 / decimate=0 / interlaced=0 / bluray_compat=0 / constrained_intra=0 / bframes=3 / b_pyramid=2 / b_adapt=2 / b_bias=0 / direct=3 / weightb=1 / open_gop=0 / weightp=2 / keyint=250 / keyint_min=23 / scenecut=40 / intra_refresh=0 / rc_lookahead=50 / rc=crf / mbtree=1 / crf=18.0 / qcomp=0.60 / qpmin=0 / qpmax=69 / qpstep=4 / ip_ratio=1.40 / aq=1:1.00
  25. Default                                  : Yes
  26. Forced                                   : No

  27. Audio #1
  28. ID                                       : 2
  29. ID in the original source medium         : 4353 (0x1101)
  30. Format                                   : DTS XLL
  31. Format/Info                              : Digital Theater Systems
  32. Commercial name                          : DTS-HD Master Audio
  33. Codec ID                                 : A_DTS
  34. Duration                                 : 2 h 28 min
  35. Bit rate mode                            : Variable
  36. Bit rate                                 : 3 004 kb/s
  37. Channel(s)                               : 6 channels
  38. Channel layout                           : C L R Ls Rs LFE
  39. Sampling rate                            : 48.0 kHz
  40. Frame rate                               : 93.750 FPS (512 SPF)
  41. Bit depth                                : 24 bits
  42. Compression mode                         : Lossless
  43. Stream size                              : 3.12 GiB (5%)
  44. Title                                    : DTS-HD MA 5.1
  45. Language                                 : English
  46. Default                                  : Yes
  47. Forced                                   : No
  48. Original source medium                   : Blu-ray

  49. Audio #2
  50. ID                                       : 3
  51. Format                                   : AC-3
  52. Format/Info                              : Audio Coding 3
  53. Commercial name                          : Dolby Digital
  54. Codec ID                                 : A_AC3
  55. Duration                                 : 2 h 28 min
  56. Bit rate mode                            : Constant
  57. Bit rate                                 : 640 kb/s
  58. Channel(s)                               : 6 channels
  59. Channel layout                           : L R C LFE Ls Rs
  60. Sampling rate                            : 48.0 kHz
  61. Frame rate                               : 31.250 FPS (1536 SPF)
  62. Compression mode                         : Lossy
  63. Stream size                              : 680 MiB (1%)
  64. Title                                    : DD 5.1
  65. Language                                 : English
  66. Service kind                             : Complete Main
  67. Default                                  : No
  68. Forced                                   : No

  69. Text #1
  70. ID                                       : 4
  71. Format                                   : UTF-8
  72. Codec ID                                 : S_TEXT/UTF8
  73. Codec ID/Info                            : UTF-8 Plain Text
  74. Duration                                 : 2 h 0 min
  75. Bit rate                                 : 0 b/s
  76. Count of elements                        : 30
  77. Stream size                              : 809 Bytes (0%)
  78. Title                                    : FORCED
  79. Language                                 : English
  80. Default                                  : No
  81. Forced                                   : Yes

  82. Text #2
  83. ID                                       : 5
  84. Format                                   : UTF-8
  85. Codec ID                                 : S_TEXT/UTF8
  86. Codec ID/Info                            : UTF-8 Plain Text
  87. Duration                                 : 2 h 18 min
  88. Bit rate                                 : 27 b/s
  89. Count of elements                        : 849
  90. Stream size                              : 28.1 KiB (0%)
  91. Language                                 : English
  92. Default                                  : Yes
  93. Forced                                   : No

  94. Text #3
  95. ID                                       : 6
  96. ID in the original source medium         : 4768 (0x12A0)
  97. Format                                   : PGS
  98. Muxing mode                              : zlib
  99. Codec ID                                 : S_HDMV/PGS
  100. Codec ID/Info                            : Picture based subtitle format used on BDs/HD-DVDs
  101. Duration                                 : 2 h 18 min
  102. Bit rate                                 : 19.0 kb/s
  103. Count of elements                        : 2233
  104. Stream size                              : 18.9 MiB (0%)
  105. Language                                 : German
  106. Default                                  : No
  107. Forced                                   : No
  108. Original source medium                   : Blu-ray

  109. Menu
  110. 00:00:00.000                             : en:Chapter 01
  111. 00:02:01.121                             : en:Chapter 02
  112. 00:12:08.436                             : en:Chapter 03
  113. 00:24:12.868                             : en:Chapter 04
  114. 00:32:38.623                             : en:Chapter 05
  115. 00:42:40.474                             : en:Chapter 06
  116. 00:56:03.568                             : en:Chapter 07
  117. 01:09:09.103                             : en:Chapter 08
  118. 01:17:12.085                             : en:Chapter 09
  119. 01:24:54.255                             : en:Chapter 10
  120. 01:37:53.993                             : en:Chapter 11
  121. 01:50:46.723                             : en:Chapter 12
  122. 01:56:09.587                             : en:Chapter 13
  123. 02:03:23.604                             : en:Chapter 14
  124. 02:14:08.957                             : en:Chapter 15
  125. 02:20:12.278                             : en:Chapter 16
复制代码












                                       
                                       

                                       
                                       
                                       




回复

使用道具 举报

蓝光币
3
发表于 2021-10-31 16:32:13 | 显示全部楼层
楼住牛逼!
回复

使用道具 举报

蓝光币
528
发表于 2021-10-31 21:37:32 | 显示全部楼层

既然你诚信诚意的推荐了,那我就勉为其难的看看吧!蓝光电影网不走平凡路。
回复 支持 反对

使用道具 举报

懒得打字嘛,点击右侧快捷回复 【右侧内容,后台自定义】
您需要登录后才可以回帖 登录 | 立即加入

本版积分规则

Archiver|小黑屋| 蓝光电影网 |网站地图

Copyright © 2021 Comsenz Inc. Powered by 蓝光电影网

蓝光电影网

本站内容由用户自主分享和转载自互联网,转载目的在于传递更多信息,并不代表本网赞同其观点和对其真实性负责。

如有侵权、违反国家法律政策行为,请联系我们,我们会第一时间及时清除和处理!

举报反馈邮箱:[email protected]

快速回复 返回顶部 返回列表