找回密码

蓝光电影网

查看: 134|回复: 0

[其他] 骑士谷:米拉的魔法圣诞节 Valley.of.Knights.2015.DUBBED.1080p.AMZN.WEBRip.DDP2.0.x264-tobias 6.25GB

[复制链接]
蓝光币
730
发表于 2021-10-30 13:50:44 | 显示全部楼层 |阅读模式


◎译  名 骑士谷:米拉的魔法圣诞节/Der Winterprinz - Miras magisches Abenteuer/Julekongen - Full rustning/Valley of Knights - Mira's Magical Christmas
◎片  名 Julekongen
◎年  代 2015
◎产  地 挪威,美国,德国
◎类  别 家庭 / 奇异 / 冒险
◎语  言 挪威语,英语,德语
◎上映日期 2015-11-13(挪威) / 2016-11-10(德国) / 2016-11-25(波兰)
◎豆瓣评分 /10 from 0 users
◎豆瓣链接 https://movie.douban.com/subject/26942890/
◎片  长 93分钟
◎编  剧 拉尔斯·古默斯塔 Lars Gudmestad / 哈拉尔·罗斯诺瑙·艾格 Harald Rosenl?w-Eeg
◎主  演 维特尔·奎维尔德·韦林 Vetle Qvenild Werring
       Herborg Kr?kevik Herborg Kr?kevik
◎标  签 电影 | Cartoon | Animation
◎简  介


  骑士谷下雪了,这是一个骑士精神永久不死的魔法天下。年轻的皇后用魔法手套制造雪花,让全部王国能过红色圣诞节。唯逐一个对此感应不满的,就是皇后那天生凶险邪恶的舅舅Snerk。这时,一个崇敬邪恶势力的女孩Muld找到了魔法盔甲的其中三个部件,让他发现这工具本来有魔力!他终究可以控制骑士谷了!可是这魔法盔甲还缺最初一个部件,也就是皇后的魔法手套。一心想要追求无穷权利的他,因而踏上了追杀皇后的路……
  1. Video
  2. ID                                       : 1
  3. Format                                   : AVC
  4. Format/Info                              : Advanced Video Codec
  5. Format profile                           : [email protected]
  6. Format settings                          : CABAC / 4 Ref Frames
  7. Format settings, CABAC                   : Yes
  8. Format settings, Reference frames        : 4 frames
  9. Codec ID                                 : V_MPEG4/ISO/AVC
  10. Duration                                 : 1 h 33 min
  11. Bit rate mode                            : Constant
  12. Bit rate                                 : 9 367 kb/s
  13. Nominal bit rate                         : 10 000 kb/s
  14. Width                                    : 1 920 pixels
  15. Height                                   : 1 080 pixels
  16. Display aspect ratio                     : 16:9
  17. Frame rate mode                          : Constant
  18. Frame rate                               : 23.976 (24000/1001/189150) FPS
  19. Color space                              : YUV
  20. Chroma subsampling                       : 4:2:0
  21. Bit depth                                : 8 bits
  22. Scan type                                : Progressive
  23. Bits/(Pixel*Frame)                       : 0.188
  24. Stream size                              : 6.10 GiB (98%)
  25. Default                                  : Yes
  26. Forced                                   : No
  27. Color range                              : Limited
  28. Color primaries                          : BT.709
  29. Transfer characteristics                 : BT.709
  30. Matrix coefficients                      : BT.709
  31. Audio
  32. ID                                       : 2
  33. Format                                   : E-AC-3
  34. Format/Info                              : Enhanced AC-3
  35. Commercial name                          : Dolby Digital Plus
  36. Codec ID                                 : A_EAC3
  37. Duration                                 : 1 h 33 min
  38. Bit rate mode                            : Constant
  39. Bit rate                                 : 224 kb/s
  40. Channel(s)                               : 2 channels
  41. Channel layout                           : L R
  42. Sampling rate                            : 48.0 kHz
  43. Frame rate                               : 31.250 FPS (1536 SPF)
  44. Compression mode                         : Lossy
  45. Stream size                              : 149 MiB (2%)
  46. Title                                    : English
  47. Language                                 : English
  48. Service kind                             : Complete Main
  49. Default                                  : Yes
  50. Forced                                   : No
  51. Text
  52. ID                                       : 3
  53. Format                                   : UTF-8
  54. Codec ID                                 : S_TEXT/UTF8
  55. Codec ID/Info                            : UTF-8 Plain Text
  56. Duration                                 : 1 h 32 min
  57. Bit rate                                 : 52 b/s
  58. Count of elements                        : 1322
  59. Stream size                              : 35.9 KiB (0%)
  60. Title                                    : English [SDH]
  61. Language                                 : English
  62. Default                                  : Yes
  63. Forced                                   : No
复制代码







                                       
                                       

                                       
                                       
                                       




回复

使用道具 举报

懒得打字嘛,点击右侧快捷回复 【右侧内容,后台自定义】
您需要登录后才可以回帖 登录 | 立即加入

本版积分规则

Archiver|小黑屋| 蓝光电影网 |网站地图

Copyright © 2021 Comsenz Inc. Powered by 蓝光电影网

蓝光电影网

本站内容由用户自主分享和转载自互联网,转载目的在于传递更多信息,并不代表本网赞同其观点和对其真实性负责。

如有侵权、违反国家法律政策行为,请联系我们,我们会第一时间及时清除和处理!

举报反馈邮箱:[email protected]

快速回复 返回顶部 返回列表