找回密码

蓝光电影网

查看: 108|回复: 0

[喜剧] 女校风波/公主我最大 The.Clique.2008.1080p.AMZN.WEBRip.DDP5.1.x264-alfaHD 6.14GB

[复制链接]
蓝光币
682
发表于 2021-10-30 16:51:46 | 显示全部楼层 |阅读模式


◎译  名 女校风浪/公主我最大/奥克特私立女子中学/少女五人组
◎片  名 The Clique
◎年  代 2008
◎产  地 美国
◎类  别 笑剧
◎语  言 英语
◎上映日期 2008-11-11
◎豆瓣评分 6.3/10 from 13007 users
◎豆瓣链接 https://movie.douban.com/subject/3077826/
◎片  长 87 分钟
◎导  演 迈克尔·莱拜克 Michael Lembeck
◎主  演 瓦妮莎·马兰洛 Vanessa Marano
       伊莎贝拉·麦克罗林 Elizabeth McLaughlin
       埃伦·马洛 Ellen Marlow
       布丽奇·门德勒 Bridgit Mendler
       伊丽莎白·吉莱丝 Elizabeth Gillies
       萨曼莎·波斯卡瑞诺 Samantha Boscarino
       亚伦·J·帕顿 Aaron J. Patton
       迪兰·明奈特 Dylan Minnette
       波利斯·麦戈法 Boris McGiver
       尼尔·马塔拉佐 Neal Matarazzo
       伊丽莎白·凯菲 Elizabeth Keifer
       史蒂芬·瓜里诺 Stephen Guarino
       丽莎·马斯特斯 Lisa Masters
◎标  签 青春 | 校园 | 美国 | 美国电影 | 笑剧 | 女校风浪 | 2008 | 电影
◎简  介


  少女克莱尔·里昂斯(艾伦·马洛 Ellen Marlow 饰)随怙恃从奥兰多搬到西切斯特,由于尚未找到合适居处,里昂斯一家临时住在朋友威廉姆·布洛克(David Chisum 饰)的家中。布洛克的女儿梅西(伊丽莎白·麦克洛林 Elizabeth McLaughlin 饰)养尊处优,本性声张,她所就读的奥克特私立女子中学更是一所云集了崇高娇蜜斯的黉舍。在她看来,穿着质朴、本性纯真的克莱尔如同一只丑小鸭。分歧的身份和长大情况令两个女孩之间没法建立同等的友谊,梅西和同党们在黉舍里想方想法整治克莱尔,而克莱尔也受虚荣心的驱使,一心结交这群崇高的蜜斯们。在这一进程中,她们各自丢失了自己……
  
  本片按照美国作家Lisi Harrison同名畅销少女小说的第一部改编。
  1. Video
  2. ID                                       : 1
  3. Format                                   : AVC
  4. Format/Info                              : Advanced Video Codec
  5. Format profile                           : [email protected]
  6. Format settings                          : CABAC / 4 Ref Frames
  7. Format settings, CABAC                   : Yes
  8. Format settings, Reference frames        : 4 frames
  9. Codec ID                                 : V_MPEG4/ISO/AVC
  10. Duration                                 : 1 h 27 min
  11. Bit rate mode                            : Constant
  12. Bit rate                                 : 9 429 kb/s
  13. Nominal bit rate                         : 10 000 kb/s
  14. Width                                    : 1 920 pixels
  15. Height                                   : 1 080 pixels
  16. Display aspect ratio                     : 16:9
  17. Frame rate mode                          : Constant
  18. Frame rate                               : 23.976 (24000/1001/189150) FPS
  19. Color space                              : YUV
  20. Chroma subsampling                       : 4:2:0
  21. Bit depth                                : 8 bits
  22. Scan type                                : Progressive
  23. Bits/(Pixel*Frame)                       : 0.190
  24. Stream size                              : 5.75 GiB (94%)
  25. Default                                  : Yes
  26. Forced                                   : No
  27. Color range                              : Limited
  28. Color primaries                          : BT.709
  29. Transfer characteristics                 : BT.709
  30. Matrix coefficients                      : BT.709
  31. Audio
  32. ID                                       : 2
  33. Format                                   : E-AC-3
  34. Format/Info                              : Enhanced AC-3
  35. Commercial name                          : Dolby Digital Plus
  36. Codec ID                                 : A_EAC3
  37. Duration                                 : 1 h 27 min
  38. Bit rate mode                            : Constant
  39. Bit rate                                 : 640 kb/s
  40. Channel(s)                               : 6 channels
  41. Channel layout                           : L R C LFE Ls Rs
  42. Sampling rate                            : 48.0 kHz
  43. Frame rate                               : 31.250 FPS (1536 SPF)
  44. Compression mode                         : Lossy
  45. Stream size                              : 399 MiB (6%)
  46. Language                                 : English
  47. Service kind                             : Complete Main
  48. Default                                  : Yes
  49. Forced                                   : No
  50. Text #1
  51. ID                                       : 3
  52. Format                                   : UTF-8
  53. Codec ID                                 : S_TEXT/UTF8
  54. Codec ID/Info                            : UTF-8 Plain Text
  55. Duration                                 : 1 h 26 min
  56. Bit rate                                 : 75 b/s
  57. Count of elements                        : 1591
  58. Stream size                              : 48.0 KiB (0%)
  59. Language                                 : English
  60. Default                                  : No
  61. Forced                                   : No
  62. Text #2
  63. ID                                       : 4
  64. Format                                   : UTF-8
  65. Codec ID                                 : S_TEXT/UTF8
  66. Codec ID/Info                            : UTF-8 Plain Text
  67. Duration                                 : 1 h 26 min
  68. Bit rate                                 : 80 b/s
  69. Count of elements                        : 1767
  70. Stream size                              : 51.4 KiB (0%)
  71. Title                                    : SDH
  72. Language                                 : English
  73. Default                                  : No
  74. Forced                                   : No
  75. Text #3
  76. ID                                       : 5
  77. Format                                   : UTF-8
  78. Codec ID                                 : S_TEXT/UTF8
  79. Codec ID/Info                            : UTF-8 Plain Text
  80. Duration                                 : 1 h 22 min
  81. Bit rate                                 : 67 b/s
  82. Count of elements                        : 1259
  83. Stream size                              : 41.0 KiB (0%)
  84. Language                                 : Portuguese
  85. Default                                  : No
  86. Forced                                   : No
  87. Text #4
  88. ID                                       : 6
  89. Format                                   : UTF-8
  90. Codec ID                                 : S_TEXT/UTF8
  91. Codec ID/Info                            : UTF-8 Plain Text
  92. Duration                                 : 1 h 22 min
  93. Bit rate                                 : 63 b/s
  94. Count of elements                        : 1220
  95. Stream size                              : 38.4 KiB (0%)
  96. Language                                 : Swedish
  97. Default                                  : No
  98. Forced                                   : No
  99. Menu
  100. 00:00:00.000                             : Studio logos
  101. 00:00:11.000                             : Massie has to miss a party because the Lyons are coming to stay
  102. 00:03:44.000                             : Massie\'s mom Kendra promises to allow her to go to the party after dinner
  103. 00:04:28.000                             : The Lyons arrive & are received by the Block family
  104. 00:06:20.000                             : Massie cancels her party plan when Claire asks to accompany
  105. 00:08:31.000                             : Claire wants to fit in & decides to go shopping
  106. 00:09:08.000                             : Massie meets Chris & they plan to go out
  107. 00:10:29.000                             : Claire meets Dylan at a store & helps her buy some clothes
  108. 00:13:10.000                             : Claire goes to school with Massie
  109. 00:14:25.000                             : Massie & her friends snub Claire
  110. 00:17:19.000                             : Massie & her friends are the divas of the school
  111. 00:19:04.000                             : Claire hits Massie below the belt calling her a bitch
  112. 00:21:04.000                             : Alicia spoils Claire\'s dress
  113. 00:26:14.000                             : Massie tells her friends she\'s going on a date with Chris
  114. 00:28:17.000                             : Massie & her clique check out Chris
  115. 00:29:22.000                             : Claire lies to her mom that Massie & she get along well
  116. 00:31:10.000                             : Claire helps Massie & friends with their new project\'s name
  117. 00:32:55.000                             : Claire makes friends with Layne
  118. 00:35:12.000                             : Massie calls her clique for a sleepover & Kendra invites Claire
  119. 00:36:02.000                             : Massie argues with her mom for inviting Claire
  120. 00:38:03.000                             : Claire confesses having a crush on Chris
  121. 00:40:59.000                             : Chris tells Claire he has a girlfriend
  122. 00:42:12.000                             : Massie befriends Layne as she is Chris\' sister
  123. 00:43:24.000                             : Layne ignores Claire as she is friends with Massie
  124. 00:44:58.000                             : Massie takes Layne to a spa
  125. 00:46:04.000                             : Massie insults Claire on seeing her getting along with the group
  126. 00:48:22.000                             : Claire is upset with Massie\'s behavior
  127. 00:49:23.000                             : Claire messes with Massie\'s computer
  128. 00:51:13.000                             : Massie feels out of place as everybody is dressed the same way
  129. 00:52:01.000                             : Claire tries to sabotage Massie\'s relation with her clique
  130. 00:53:35.000                             : Claire finds out Kristen\'s secret using Massie\'s computer
  131. 00:57:30.000                             : Massie\'s friends boycott her & are now friends with Claire
  132. 00:59:12.000                             : Massie thinks Layne is the reason behind losing her friends & insults her
  133. 01:00:38.000                             : Massie\'s friends make Claire dress like them
  134. 01:02:47.000                             : Claire\'s mom orders her not to hang out with her new friends
  135. 01:03:50.000                             : Massie finds out that Claire has been hijacking her account
  136. 01:07:24.000                             : Massie gets her friends back & plans for Chris\' birthday
  137. 01:09:24.000                             : Claire confesses to her mom about Massie\'s attitude towards her & that she also did wrong to Massie
  138. 01:11:04.000                             : Beauty products made by Massie & group cause allergy to everybody
  139. 01:15:14.000                             : Kristen thanks Claire for her help
  140. 01:16:06.000                             : Massie wears a dress with Chris\' name on it to woo him
  141. 01:17:38.000                             : Claire saves Massie from the embarrassment by announcing Chris has a girlfriend
  142. 01:21:53.000                             : Massie starts growing fond of Claire
  143. 01:23:16.000                             : Closing credits
复制代码







                                       
                                       

                                       
                                       
                                       




回复

使用道具 举报

懒得打字嘛,点击右侧快捷回复 【右侧内容,后台自定义】
您需要登录后才可以回帖 登录 | 立即加入

本版积分规则

Archiver|小黑屋| 蓝光电影网 |网站地图

Copyright © 2021 Comsenz Inc. Powered by 蓝光电影网

蓝光电影网

本站内容由用户自主分享和转载自互联网,转载目的在于传递更多信息,并不代表本网赞同其观点和对其真实性负责。

如有侵权、违反国家法律政策行为,请联系我们,我们会第一时间及时清除和处理!

举报反馈邮箱:[email protected]

快速回复 返回顶部 返回列表