找回密码

蓝光电影网

查看: 251|回复: 0

[剧情] 以法之名 In.the.Name.of.the.Law.1949.ITALIAN.1080p.BluRay.x264.AAC2.0-HANDJOB 8.41GB

[复制链接]
蓝光币
733
发表于 2021-10-30 17:09:01 | 显示全部楼层 |阅读模式


◎译  名 以法之名
◎片  名 In nome della legge
◎年  代 1949
◎产  地 法国,意大利
◎类  别 剧情
◎语  言 意大利语
◎上映日期 1949-02-19
◎豆瓣评分 /10 from 0 users
◎豆瓣链接 https://movie.douban.com/subject/2147868/
◎片  长 101 分钟
◎导  演 皮亚托·杰米 Pietro Germi
◎编  剧 朱塞佩·吉欧尼 Giuseppe Mangione / 图里奥·皮内利 Tullio Pinelli / 皮亚托·杰米 Pietro Germi / 费德里科·费里尼 Federico Fellini / 马里奥·莫尼切利 Mario Monicelli
◎主  演 马西莫·吉洛蒂 Massimo Girotti
       约内·萨利纳斯 Jone Salinas
       夏尔·瓦内尔 Charles Vanel
       卡米洛·马斯特罗钦奎 Camillo Mastrocinque
       萨罗·乌尔齐 Saro Urzì
       图里·潘多尔菲尼 Turi Pandolfini
       翁贝托·斯帕达罗 Umberto Spadaro
       萨罗·阿尔奇迪亚科诺 Saro Arcidiacono
       Natale Cirino Natale Cirino
       伊格纳齐奥·巴尔萨莫 Ignazio Balsamo
◎标  签 意大利 | 犯罪 | 意大利电影 | M意大利 | D皮亚托·杰米 | 1949 | 1940 | 黑白
◎简  介


  故事报告一个满脸写着正直的西西里裔的年轻法官吉多?希亚伟(Guido Schiavi)来到了西西里村落卡泊达尔索(Capodarso)。(众看官暴露“有好戏看了”的脸色)。而希亚伟不单与当地以帕萨拉夸(Passalacqua)为首的强大的黑手党势力发生抵触,而且还爱上的人正是试图向他行贿的煤老板的妻子!终极他对正义的信仰能不能承受得住考验呢?
  1. Video
  2. ID                                       : 1
  3. Format                                   : AVC
  4. Format/Info                              : Advanced Video Codec
  5. Format profile                           : [email protected]
  6. Format settings                          : CABAC / 5 Ref Frames
  7. Format settings, CABAC                   : Yes
  8. Format settings, Reference frames        : 5 frames
  9. Codec ID                                 : V_MPEG4/ISO/AVC
  10. Duration                                 : 1 h 40 min
  11. Bit rate                                 : 11.8 Mb/s
  12. Width                                    : 1 492 pixels
  13. Height                                   : 1 080 pixels
  14. Display aspect ratio                     : 1.381
  15. Frame rate mode                          : Constant
  16. Frame rate                               : 24.000 FPS
  17. Color space                              : YUV
  18. Chroma subsampling                       : 4:2:0
  19. Bit depth                                : 8 bits
  20. Scan type                                : Progressive
  21. Bits/(Pixel*Frame)                       : 0.306
  22. Stream size                              : 8.33 GiB (99%)
  23. Writing library                          : x264 core 157 r2935 545de2f
  24. Encoding settings                        : cabac=1 / ref=5 / deblock=1:-3:-3 / analyse=0x3:0x133 / me=umh / subme=11 / psy=1 / psy_rd=1.00:0.00 / mixed_ref=1 / me_range=32 / chroma_me=1 / trellis=2 / 8x8dct=1 / cqm=0 / deadzone=21,11 / fast_pskip=0 / chroma_qp_offset=-2 / threads=6 / lookahead_threads=1 / sliced_threads=0 / nr=0 / decimate=0 / interlaced=0 / bluray_compat=0 / constrained_intra=0 / bframes=16 / b_pyramid=2 / b_adapt=2 / b_bias=0 / direct=3 / weightb=1 / open_gop=0 / weightp=2 / keyint=240 / keyint_min=24 / scenecut=40 / intra_refresh=0 / rc_lookahead=60 / rc=crf / mbtree=0 / crf=20.2 / qcomp=0.60 / qpmin=0 / qpmax=69 / qpstep=4 / vbv_maxrate=62500 / vbv_bufsize=78125 / crf_max=0.0 / nal_hrd=none / filler=0 / ip_ratio=1.30 / pb_ratio=1.20 / aq=1:0.90
  25. Default                                  : Yes
  26. Forced                                   : No
  27. Color range                              : Limited
  28. Color primaries                          : BT.709
  29. Transfer characteristics                 : BT.709
  30. Matrix coefficients                      : BT.709
  31. Audio
  32. ID                                       : 2
  33. Format                                   : AAC LC
  34. Format/Info                              : Advanced Audio Codec Low Complexity
  35. Codec ID                                 : A_AAC-2
  36. Duration                                 : 1 h 40 min
  37. Bit rate                                 : 92.1 kb/s
  38. Channel(s)                               : 2 channels
  39. Channel layout                           : L R
  40. Sampling rate                            : 48.0 kHz
  41. Frame rate                               : 46.875 FPS (1024 SPF)
  42. Compression mode                         : Lossy
  43. Stream size                              : 66.5 MiB (1%)
  44. Language                                 : Italian
  45. Default                                  : Yes
  46. Forced                                   : No
  47. Text #1
  48. ID                                       : 3
  49. Format                                   : UTF-8
  50. Codec ID                                 : S_TEXT/UTF8
  51. Codec ID/Info                            : UTF-8 Plain Text
  52. Duration                                 : 1 h 39 min
  53. Bit rate                                 : 61 b/s
  54. Count of elements                        : 896
  55. Stream size                              : 44.9 KiB (0%)
  56. Language                                 : English
  57. Default                                  : Yes
  58. Forced                                   : No
  59. Text #2
  60. ID                                       : 4
  61. Format                                   : PGS
  62. Muxing mode                              : zlib
  63. Codec ID                                 : S_HDMV/PGS
  64. Codec ID/Info                            : Picture based subtitle format used on BDs/HD-DVDs
  65. Duration                                 : 1 h 40 min
  66. Bit rate                                 : 34.8 kb/s
  67. Count of elements                        : 2584
  68. Stream size                              : 25.1 MiB (0%)
  69. Language                                 : French
  70. Default                                  : No
  71. Forced                                   : No
  72. Menu
  73. 00:00:00.000                             : :Chapter 1
  74. 00:08:42.875                             : :Chapter 2
  75. 00:17:57.000                             : :Chapter 3
  76. 00:27:30.083                             : :Chapter 4
  77. 00:36:05.042                             : :Chapter 5
  78. 00:44:50.042                             : :Chapter 6
  79. 00:53:46.917                             : :Chapter 7
  80. 01:02:25.083                             : :Chapter 8
  81. 01:13:12.042                             : :Chapter 9
  82. 01:22:11.333                             : :Chapter 10
  83. 01:30:26.333                             : :Chapter 11
  84. 01:40:41.083                             : :Chapter 12
复制代码







                                       
                                       

                                       
                                       
                                       




回复

使用道具 举报

懒得打字嘛,点击右侧快捷回复 【右侧内容,后台自定义】
您需要登录后才可以回帖 登录 | 立即加入

本版积分规则

Archiver|小黑屋| 蓝光电影网 |网站地图

Copyright © 2021 Comsenz Inc. Powered by 蓝光电影网

蓝光电影网

本站内容由用户自主分享和转载自互联网,转载目的在于传递更多信息,并不代表本网赞同其观点和对其真实性负责。

如有侵权、违反国家法律政策行为,请联系我们,我们会第一时间及时清除和处理!

举报反馈邮箱:[email protected]

快速回复 返回顶部 返回列表