找回密码

蓝光电影网

查看: 2849|回复: 42

[2160p-WEB] 007:无暇赴死/007:没空去死 No.Time.To.Die.2021.2160p.WEB-DL.DDP5.1.Atmos.DV.MP4.x265-NOTIMETOCRY 28.79GB

[复制链接]
蓝光币
733
发表于 2021-11-9 20:33:14 | 显示全部楼层 |阅读模式


◎译  名 007:无暇赴死/007:没空去死(豆友译名)/007:生死交兵(台)/007:生死偶然(港)/007:间不容死/James Bond 25/Never Dream of Dying/Shatterhand/邦德25
◎片  名 No Time to Die
◎年  代 2021
◎产  地 英国,美国
◎类  别 行动 / 惊悚 / 冒险
◎语  言 英语,法语,意大利语,俄语,西班牙语
◎上映日期 2021-09-30(英国) / 2021-10-08(美国) / 2021-10-29(中国大陆)
◎豆瓣评分 6.9/10 from 115512 users
◎豆瓣链接 https://movie.douban.com/subject/20276229/
◎片  长 164分钟
◎导  演 凯瑞·福永 Cary Fukunaga
◎编  剧 尼尔·珀维斯 Neal Purvis / 罗伯特·韦德 Robert Wade / 凯瑞·福永 Cary Fukunaga / 菲比·沃勒-布里奇 Phoebe Waller-Bridge / 伊恩·弗莱明 Ian Fleming
◎主  演 丹尼尔·克雷格 Daniel Craig
       拉米·马雷克 Rami Malek
       蕾雅·赛杜 Léa Seydoux
       安娜·德·阿玛斯 Ana de Armas
       拉什纳·林奇 Lashana Lynch
       拉尔夫·费因斯 Ralph Fiennes
       本·卫肖 Ben Whishaw
       丽莎-朵拉·桑尼 Lisa-Dorah Sonnet
       娜奥米·哈里斯 Naomie Harris
       罗里·金尼尔 Rory Kinnear
       杰弗里·怀特 Jeffrey Wright
       比利·马格努森 Billy Magnussen
       克里斯托弗·瓦尔兹 Christoph Waltz
       大卫·丹席克 David Dencik
       达利·本萨拉赫 Dali Benssalah
       休·丹尼斯 Hugh Dennis
       普莉安卡·伯福德 Priyanga Burford
       皮奥·阿马托 Pio Amato
       贾文?普林斯 Javone Prince
       Amy Morgan Amy Morgan
       洛德斯·法比尔斯 Lourdes Faberes
       菲利普·菲尔玛 Philip Philmar
       Raymond Waring Raymond Waring
       可可·萨姆纳 Coco Sumner
       戈登·亚历山大 Gordon Alexander
       戴维·奥拉瓦莱·阿印德 David Olawale Ayinde
       安德鲁·G·奥格尔比 Andrew G. Ogleby
       吉安尼·卡尔切蒂 Gianni Calchetti
       通恰伊·古奈什 Tuncay Gunes
       泰·赫尔利 Ty Hurley
       拉普洛斯·卡伦福佐斯 Lampros Kalfuntzos
       马里安·洛伦西克 Marian Lorencik
       朱利安·费罗 Julian Ferro
◎标  签 007 | 奸细 | 行动 | 英国 | 2021 | 特务 | 犯罪 | 系列
◎简  介


  天下大势波诡云谲,再度出山的邦德(丹尼尔·克雷格 饰)面临有史以来空前的危机,传奇异工007的故事在本片中到达飞腾。新老脚色集结亮相,蕾雅·赛杜回归,二度饰演邦女郎玛德琳。系列最可骇反派萨芬(拉米·马雷克 饰)重磅退场,绝不包涵地展现了自己狠辣的一面,不但揭开了玛德琳身上隐藏的奥秘,还酝酿着危及数百万大家命的诡计,鬼魂党的身影也似乎再次浮出水面。半路杀出的新00号奸细(拉什纳·林奇 饰)与奥秘女子(安娜·德·阿玛斯 饰)看似与邦德同阵作战,但其实在目标仍然成谜。关乎邦德生死的新仇旧怨相继而至,暗流澎湃之下他能否拯救天下?
◎获奖情况
  第7届豆瓣电影年度榜单 ?(2020)
  最值得期待的外语电影(提名)
  1. Video
  2. ID                                       : 1
  3. Format                                   : HEVC
  4. Format/Info                              : High Efficiency Video Coding
  5. Format profile                           : Main [email protected]@High
  6. HDR format                               : Dolby Vision, Version 1.0, dvhe.05.06, BL+RPU
  7. Codec ID                                 : dvhe
  8. Codec ID/Info                            : High Efficiency Video Coding with Dolby Vision
  9. Duration                                 : 2 h 43 min
  10. Bit rate                                 : 24.5 Mb/s
  11. Width                                    : 3 832 pixels
  12. Height                                   : 1 600 pixels
  13. Original height                          : 1 596 pixels
  14. Display aspect ratio                     : 2.40:1
  15. Original display aspect ratio            : 2.40:1
  16. Frame rate mode                          : Constant
  17. Frame rate                               : 23.976 (24000/1001/189150) FPS
  18. Color space                              : YUV
  19. Chroma subsampling                       : 4:2:0
  20. Bit depth                                : 10 bits
  21. Bits/(Pixel*Frame)                       : 0.166
  22. Stream size                              : 27.9 GiB (97%)
  23. Default                                  : Yes
  24. Alternate group                          : 1
  25. Encoded date                             : UTC 2021-11-09 05:20:38
  26. Tagged date                              : UTC 2021-11-09 05:27:38
  27. Codec configuration box                  : hvcC+dvcC

  28. Audio
  29. ID                                       : 2
  30. Format                                   : E-AC-3 JOC
  31. Format/Info                              : Enhanced AC-3 with Joint Object Coding
  32. Commercial name                          : Dolby Digital Plus with Dolby Atmos
  33. Codec ID                                 : ec-3
  34. Duration                                 : 2 h 43 min
  35. Bit rate mode                            : Constant
  36. Bit rate                                 : 768 kb/s
  37. Maximum bit rate                         : 811 kb/s
  38. Channel(s)                               : 6 channels
  39. Channel layout                           : L R C LFE Ls Rs
  40. Sampling rate                            : 48.0 kHz
  41. Frame rate                               : 31.250 FPS (1536 SPF)
  42. Compression mode                         : Lossy
  43. Stream size                              : 898 MiB (3%)
  44. Title                                    : English (UK)
  45. Language                                 : English
  46. Service kind                             : Complete Main
  47. Encoded date                             : UTC 2021-11-09 05:04:48
  48. Tagged date                              : UTC 2021-11-09 05:27:38
  49. Complexity index                         : Not present / 16
  50. Number of dynamic objects                : 15
  51. Bed channel count                        : 1 channel
  52. Bed channel configuration                : LFE

  53. Text #1
  54. ID                                       : 3
  55. Format                                   : Timed Text
  56. Codec ID                                 : tx3g
  57. Duration                                 : 2 h 16 min
  58. Bit rate mode                            : Variable
  59. Bit rate                                 : 1 b/s
  60. Stream size                              : 1.40 KiB (0%)
  61. Title                                    : Forced
  62. Language                                 : English
  63. Forced                                   : No
  64. Encoded date                             : UTC 2021-11-09 05:27:36
  65. Tagged date                              : UTC 2021-11-09 05:27:38

  66. Text #2
  67. ID                                       : 4
  68. Format                                   : Timed Text
  69. Codec ID                                 : tx3g
  70. Duration                                 : 2 h 36 min
  71. Bit rate mode                            : Variable
  72. Bit rate                                 : 50 b/s
  73. Stream size                              : 57.8 KiB (0%)
  74. Title                                    : English
  75. Language                                 : English
  76. Forced                                   : No
  77. Encoded date                             : UTC 2021-11-09 05:27:36
  78. Tagged date                              : UTC 2021-11-09 05:27:38

  79. Text #3
  80. ID                                       : 5
  81. Format                                   : Timed Text
  82. Codec ID                                 : tx3g
  83. Duration                                 : 2 h 40 min
  84. Bit rate mode                            : Variable
  85. Bit rate                                 : 62 b/s
  86. Stream size                              : 73.2 KiB (0%)
  87. Title                                    : SDH
  88. Language                                 : English
  89. Forced                                   : No
  90. Encoded date                             : UTC 2021-11-09 05:27:36
  91. Tagged date                              : UTC 2021-11-09 05:27:38

  92. Text #4
  93. ID                                       : 6
  94. Format                                   : Timed Text
  95. Codec ID                                 : tx3g
  96. Duration                                 : 2 h 43 min
  97. Bit rate mode                            : Variable
  98. Bit rate                                 : 44 b/s
  99. Stream size                              : 53.0 KiB (0%)
  100. Title                                    : Latin American
  101. Language                                 : Spanish
  102. Forced                                   : No
  103. Encoded date                             : UTC 2021-11-09 05:27:37
  104. Tagged date                              : UTC 2021-11-09 05:27:38

  105. Text #5
  106. ID                                       : 7
  107. Format                                   : Timed Text
  108. Codec ID                                 : tx3g
  109. Duration                                 : 2 h 42 min
  110. Bit rate mode                            : Variable
  111. Bit rate                                 : 37 b/s
  112. Stream size                              : 44.4 KiB (0%)
  113. Language                                 : French
  114. Forced                                   : No
  115. Encoded date                             : UTC 2021-11-09 05:27:37
  116. Tagged date                              : UTC 2021-11-09 05:27:38

  117. Text #6
  118. ID                                       : 8
  119. Format                                   : Timed Text
  120. Codec ID                                 : tx3g
  121. Duration                                 : 2 h 43 min
  122. Bit rate mode                            : Variable
  123. Bit rate                                 : 42 b/s
  124. Stream size                              : 50.7 KiB (0%)
  125. Language                                 : Korean
  126. Forced                                   : No
  127. Encoded date                             : UTC 2021-11-09 05:27:38
  128. Tagged date                              : UTC 2021-11-09 05:27:38

  129. Menu
  130. 00:00:00.000                             : Chapter 1
  131. 00:11:57.125                             : Chapter 2
  132. 00:27:09.750                             : Chapter 3
  133. 00:43:46.000                             : Chapter 4
  134. 00:56:58.099                             : Chapter 5
  135. 01:04:09.000                             : Chapter 6
  136. 01:13:06.500                             : Chapter 7
  137. 01:22:28.832                             : Chapter 8
  138. 01:33:49.332                             : Chapter 9
  139. 01:51:42.000                             : Chapter 10
  140. 02:06:54.000                             : Chapter 11
  141. 02:25:23.500                             : Chapter 12
  142. 02:35:07.000                             : Chapter 13
复制代码




                                       
                                       

                                       
                                       
                                       




回复

使用道具 举报

蓝光币
2
发表于 2021-11-9 22:54:45 | 显示全部楼层
可以回复了,哈哈!!!
回复 支持 反对

使用道具 举报

蓝光币
1
发表于 2021-11-9 23:09:52 | 显示全部楼层
不错,多多支持
回复 支持 反对

使用道具 举报

蓝光币
0
发表于 2021-11-9 23:37:38 | 显示全部楼层
这速度是真的快
回复 支持 反对

使用道具 举报

蓝光币
15
发表于 2021-11-10 00:25:32 | 显示全部楼层
感谢分享!这个版本感觉不错,希望可以多个积分。
回复 支持 反对

使用道具 举报

蓝光币
0
发表于 2021-11-10 03:20:59 | 显示全部楼层
这个帖子不回对不起自己!我想我是一天也不能离开蓝光电影网。
回复 支持 反对

使用道具 举报

蓝光币
189
发表于 2021-11-10 08:01:34 | 显示全部楼层
楼主发贴辛苦了,谢谢楼主分享!我觉得蓝光电影网是注册对了!
回复 支持 反对

使用道具 举报

蓝光币
55
发表于 2021-11-10 08:51:49 | 显示全部楼层

这个帖子不回对不起自己!我想我是一天也不能离开蓝光电影网。
回复 支持 反对

使用道具 举报

蓝光币
63
发表于 2021-11-10 08:57:52 | 显示全部楼层

楼主,大恩不言谢了!蓝光电影网是最棒的!
回复 支持 反对

使用道具 举报

蓝光币
38
发表于 2021-11-10 09:14:55 | 显示全部楼层
感谢您的分享,资源太好了
回复 支持 反对

使用道具 举报

懒得打字嘛,点击右侧快捷回复 【右侧内容,后台自定义】
您需要登录后才可以回帖 登录 | 立即加入

本版积分规则

Archiver|小黑屋| 蓝光电影网 |网站地图

Copyright © 2021 Comsenz Inc. Powered by 蓝光电影网

蓝光电影网

本站内容由用户自主分享和转载自互联网,转载目的在于传递更多信息,并不代表本网赞同其观点和对其真实性负责。

如有侵权、违反国家法律政策行为,请联系我们,我们会第一时间及时清除和处理!

举报反馈邮箱:[email protected]

快速回复 返回顶部 返回列表