找回密码

蓝光电影网

查看: 131|回复: 0

[其他] 比利时小天后安琪儿:成名之路 Angele.2021.FRENCH.1080p.NF.WEBRip.DDP5.1.x264-TEPES 3.42GB

[复制链接]
蓝光币
730
发表于 2021-11-26 22:27:27 | 显示全部楼层 |阅读模式


◎译  名 比利时小天后安琪儿:成名之路
◎片  名 Angèle
◎年  代 2021
◎产  地 法国
◎类  别 记载片 / 音乐 / 列传
◎语  言 法语
◎上映日期 2021-11-26(美国)
◎豆瓣评分 /10 from 0 users
◎豆瓣链接 https://movie.douban.com/subject/35657013/
◎片  长 84分钟
◎简  介


  Belgian pop star Angèle reflects on her life and hopes as she finds balance amid the tears, joys and loneliness of fame. Told through her own words.
  1. Video
  2. ID                                       : 1
  3. Format                                   : AVC
  4. Format/Info                              : Advanced Video Codec
  5. Format profile                           : [email protected]
  6. Format settings                          : CABAC / 3 Ref Frames
  7. Format settings, CABAC                   : Yes
  8. Format settings, Reference frames        : 3 frames
  9. Codec ID                                 : V_MPEG4/ISO/AVC
  10. Duration                                 : 1 h 24 min
  11. Bit rate mode                            : Variable
  12. Bit rate                                 : 5 123 kb/s
  13. Nominal bit rate                         : 6 190 kb/s
  14. Maximum bit rate                         : 9 285 kb/s
  15. Width                                    : 1 920 pixels
  16. Height                                   : 1 080 pixels
  17. Display aspect ratio                     : 16:9
  18. Frame rate mode                          : Constant
  19. Frame rate                               : 25.000 FPS
  20. Color space                              : YUV
  21. Chroma subsampling                       : 4:2:0
  22. Bit depth                                : 8 bits
  23. Scan type                                : Progressive
  24. Bits/(Pixel*Frame)                       : 0.099
  25. Stream size                              : 3.04 GiB (89%)
  26. Writing library                          : x264 core 148 r2727 7d026e8
  27. Encoding settings                        : cabac=1 / ref=3 / deblock=1:0:0 / analyse=0x1:0x111 / me=umh / subme=10 / psy=1 / psy_rd=1.00:0.00 / mixed_ref=1 / me_range=24 / chroma_me=1 / trellis=2 / 8x8dct=0 / cqm=0 / deadzone=21,11 / fast_pskip=1 / chroma_qp_offset=-2 / threads=8 / lookahead_threads=1 / sliced_threads=0 / nr=0 / decimate=1 / interlaced=0 / bluray_compat=0 / stitchable=1 / constrained_intra=0 / bframes=2 / b_pyramid=0 / b_adapt=2 / b_bias=0 / direct=3 / weightb=1 / open_gop=0 / weightp=2 / keyint=250 / keyint_min=25 / scenecut=0 / intra_refresh=0 / rc_lookahead=50 / rc=2pass / mbtree=1 / bitrate=6190 / ratetol=1.0 / qcomp=0.50 / qpmin=6 / qpmax=51 / qpstep=4 / cplxblur=20.0 / qblur=0.5 / vbv_maxrate=9285 / vbv_bufsize=12380 / nal_hrd=vbr / filler=0 / ip_ratio=1.40 / aq=1:1.00
  28. Default                                  : Yes
  29. Forced                                   : No
  30. Audio
  31. ID                                       : 2
  32. Format                                   : E-AC-3
  33. Format/Info                              : Enhanced AC-3
  34. Commercial name                          : Dolby Digital Plus
  35. Codec ID                                 : A_EAC3
  36. Duration                                 : 1 h 24 min
  37. Bit rate mode                            : Constant
  38. Bit rate                                 : 640 kb/s
  39. Channel(s)                               : 6 channels
  40. Channel layout                           : L R C LFE Ls Rs
  41. Sampling rate                            : 48.0 kHz
  42. Frame rate                               : 31.250 FPS (1536 SPF)
  43. Compression mode                         : Lossy
  44. Stream size                              : 389 MiB (11%)
  45. Language                                 : French
  46. Service kind                             : Complete Main
  47. Default                                  : Yes
  48. Forced                                   : No
  49. Text #1
  50. ID                                       : 3
  51. Format                                   : UTF-8
  52. Codec ID                                 : S_TEXT/UTF8
  53. Codec ID/Info                            : UTF-8 Plain Text
  54. Duration                                 : 1 h 16 min
  55. Bit rate                                 : 1 b/s
  56. Count of elements                        : 25
  57. Stream size                              : 721 Bytes (0%)
  58. Title                                    : Forced
  59. Language                                 : French
  60. Default                                  : Yes
  61. Forced                                   : Yes
  62. Text #2
  63. ID                                       : 4
  64. Format                                   : UTF-8
  65. Codec ID                                 : S_TEXT/UTF8
  66. Codec ID/Info                            : UTF-8 Plain Text
  67. Duration                                 : 1 h 24 min
  68. Bit rate                                 : 98 b/s
  69. Count of elements                        : 1547
  70. Stream size                              : 60.9 KiB (0%)
  71. Title                                    : SDH
  72. Language                                 : French
  73. Default                                  : No
  74. Forced                                   : No
  75. Text #3
  76. ID                                       : 5
  77. Format                                   : UTF-8
  78. Codec ID                                 : S_TEXT/UTF8
  79. Codec ID/Info                            : UTF-8 Plain Text
  80. Duration                                 : 1 h 24 min
  81. Bit rate                                 : 122 b/s
  82. Count of elements                        : 1509
  83. Stream size                              : 76.2 KiB (0%)
  84. Language                                 : Arabic
  85. Default                                  : No
  86. Forced                                   : No
  87. Text #4
  88. ID                                       : 6
  89. Format                                   : UTF-8
  90. Codec ID                                 : S_TEXT/UTF8
  91. Codec ID/Info                            : UTF-8 Plain Text
  92. Duration                                 : 1 h 24 min
  93. Bit rate                                 : 79 b/s
  94. Count of elements                        : 1355
  95. Stream size                              : 49.1 KiB (0%)
  96. Language                                 : Czech
  97. Default                                  : No
  98. Forced                                   : No
  99. Text #5
  100. ID                                       : 7
  101. Format                                   : UTF-8
  102. Codec ID                                 : S_TEXT/UTF8
  103. Codec ID/Info                            : UTF-8 Plain Text
  104. Duration                                 : 1 h 24 min
  105. Bit rate                                 : 81 b/s
  106. Count of elements                        : 1210
  107. Stream size                              : 50.5 KiB (0%)
  108. Language                                 : Danish
  109. Default                                  : No
  110. Forced                                   : No
  111. Text #6
  112. ID                                       : 8
  113. Format                                   : UTF-8
  114. Codec ID                                 : S_TEXT/UTF8
  115. Codec ID/Info                            : UTF-8 Plain Text
  116. Duration                                 : 1 h 24 min
  117. Bit rate                                 : 84 b/s
  118. Count of elements                        : 1286
  119. Stream size                              : 52.5 KiB (0%)
  120. Language                                 : German
  121. Default                                  : No
  122. Forced                                   : No
  123. Text #7
  124. ID                                       : 9
  125. Format                                   : UTF-8
  126. Codec ID                                 : S_TEXT/UTF8
  127. Codec ID/Info                            : UTF-8 Plain Text
  128. Duration                                 : 1 h 24 min
  129. Bit rate                                 : 126 b/s
  130. Count of elements                        : 1379
  131. Stream size                              : 78.5 KiB (0%)
  132. Language                                 : Greek
  133. Default                                  : No
  134. Forced                                   : No
  135. Text #8
  136. ID                                       : 10
  137. Format                                   : UTF-8
  138. Codec ID                                 : S_TEXT/UTF8
  139. Codec ID/Info                            : UTF-8 Plain Text
  140. Duration                                 : 1 h 24 min
  141. Bit rate                                 : 77 b/s
  142. Count of elements                        : 1383
  143. Stream size                              : 48.0 KiB (0%)
  144. Language                                 : English
  145. Default                                  : No
  146. Forced                                   : No
  147. Text #9
  148. ID                                       : 11
  149. Format                                   : UTF-8
  150. Codec ID                                 : S_TEXT/UTF8
  151. Codec ID/Info                            : UTF-8 Plain Text
  152. Duration                                 : 1 h 24 min
  153. Bit rate                                 : 95 b/s
  154. Count of elements                        : 1552
  155. Stream size                              : 59.4 KiB (0%)
  156. Title                                    : SDH
  157. Language                                 : English
  158. Default                                  : No
  159. Forced                                   : No
  160. Text #10
  161. ID                                       : 12
  162. Format                                   : UTF-8
  163. Codec ID                                 : S_TEXT/UTF8
  164. Codec ID/Info                            : UTF-8 Plain Text
  165. Duration                                 : 1 h 24 min
  166. Bit rate                                 : 79 b/s
  167. Count of elements                        : 1293
  168. Stream size                              : 49.4 KiB (0%)
  169. Language                                 : Spanish
  170. Default                                  : No
  171. Forced                                   : No
  172. Text #11
  173. ID                                       : 13
  174. Format                                   : UTF-8
  175. Codec ID                                 : S_TEXT/UTF8
  176. Codec ID/Info                            : UTF-8 Plain Text
  177. Duration                                 : 1 h 24 min
  178. Bit rate                                 : 80 b/s
  179. Count of elements                        : 1326
  180. Stream size                              : 49.8 KiB (0%)
  181. Title                                    : European
  182. Language                                 : Spanish
  183. Default                                  : No
  184. Forced                                   : No
  185. Text #12
  186. ID                                       : 14
  187. Format                                   : UTF-8
  188. Codec ID                                 : S_TEXT/UTF8
  189. Codec ID/Info                            : UTF-8 Plain Text
  190. Duration                                 : 1 h 24 min
  191. Bit rate                                 : 70 b/s
  192. Count of elements                        : 974
  193. Stream size                              : 43.6 KiB (0%)
  194. Language                                 : Finnish
  195. Default                                  : No
  196. Forced                                   : No
  197. Text #13
  198. ID                                       : 15
  199. Format                                   : UTF-8
  200. Codec ID                                 : S_TEXT/UTF8
  201. Codec ID/Info                            : UTF-8 Plain Text
  202. Duration                                 : 1 h 24 min
  203. Bit rate                                 : 114 b/s
  204. Count of elements                        : 1400
  205. Stream size                              : 71.1 KiB (0%)
  206. Language                                 : Hebrew
  207. Default                                  : No
  208. Forced                                   : No
  209. Text #14
  210. ID                                       : 16
  211. Format                                   : UTF-8
  212. Codec ID                                 : S_TEXT/UTF8
  213. Codec ID/Info                            : UTF-8 Plain Text
  214. Duration                                 : 1 h 24 min
  215. Bit rate                                 : 75 b/s
  216. Count of elements                        : 1315
  217. Stream size                              : 47.0 KiB (0%)
  218. Language                                 : Croatian
  219. Default                                  : No
  220. Forced                                   : No
  221. Text #15
  222. ID                                       : 17
  223. Format                                   : UTF-8
  224. Codec ID                                 : S_TEXT/UTF8
  225. Codec ID/Info                            : UTF-8 Plain Text
  226. Duration                                 : 1 h 24 min
  227. Bit rate                                 : 86 b/s
  228. Count of elements                        : 1222
  229. Stream size                              : 53.5 KiB (0%)
  230. Language                                 : Hungarian
  231. Default                                  : No
  232. Forced                                   : No
  233. Text #16
  234. ID                                       : 18
  235. Format                                   : UTF-8
  236. Codec ID                                 : S_TEXT/UTF8
  237. Codec ID/Info                            : UTF-8 Plain Text
  238. Duration                                 : 1 h 24 min
  239. Bit rate                                 : 79 b/s
  240. Count of elements                        : 1284
  241. Stream size                              : 49.0 KiB (0%)
  242. Language                                 : Indonesian
  243. Default                                  : No
  244. Forced                                   : No
  245. Text #17
  246. ID                                       : 19
  247. Format                                   : UTF-8
  248. Codec ID                                 : S_TEXT/UTF8
  249. Codec ID/Info                            : UTF-8 Plain Text
  250. Duration                                 : 1 h 24 min
  251. Bit rate                                 : 78 b/s
  252. Count of elements                        : 1273
  253. Stream size                              : 48.6 KiB (0%)
  254. Language                                 : Italian
  255. Default                                  : No
  256. Forced                                   : No
  257. Text #18
  258. ID                                       : 20
  259. Format                                   : UTF-8
  260. Codec ID                                 : S_TEXT/UTF8
  261. Codec ID/Info                            : UTF-8 Plain Text
  262. Duration                                 : 1 h 24 min
  263. Bit rate                                 : 89 b/s
  264. Count of elements                        : 1370
  265. Stream size                              : 55.8 KiB (0%)
  266. Language                                 : Japanese
  267. Default                                  : No
  268. Forced                                   : No
  269. Text #19
  270. ID                                       : 21
  271. Format                                   : UTF-8
  272. Codec ID                                 : S_TEXT/UTF8
  273. Codec ID/Info                            : UTF-8 Plain Text
  274. Duration                                 : 1 h 24 min
  275. Bit rate                                 : 93 b/s
  276. Count of elements                        : 1412
  277. Stream size                              : 57.8 KiB (0%)
  278. Language                                 : Korean
  279. Default                                  : No
  280. Forced                                   : No
  281. Text #20
  282. ID                                       : 22
  283. Format                                   : UTF-8
  284. Codec ID                                 : S_TEXT/UTF8
  285. Codec ID/Info                            : UTF-8 Plain Text
  286. Duration                                 : 1 h 24 min
  287. Bit rate                                 : 78 b/s
  288. Count of elements                        : 1348
  289. Stream size                              : 48.5 KiB (0%)
  290. Language                                 : Malay
  291. Default                                  : No
  292. Forced                                   : No
  293. Text #21
  294. ID                                       : 23
  295. Format                                   : UTF-8
  296. Codec ID                                 : S_TEXT/UTF8
  297. Codec ID/Info                            : UTF-8 Plain Text
  298. Duration                                 : 1 h 24 min
  299. Bit rate                                 : 74 b/s
  300. Count of elements                        : 1189
  301. Stream size                              : 46.3 KiB (0%)
  302. Language                                 : Norwegian Bokmal
  303. Default                                  : No
  304. Forced                                   : No
  305. Text #22
  306. ID                                       : 24
  307. Format                                   : UTF-8
  308. Codec ID                                 : S_TEXT/UTF8
  309. Codec ID/Info                            : UTF-8 Plain Text
  310. Duration                                 : 1 h 24 min
  311. Bit rate                                 : 71 b/s
  312. Count of elements                        : 1207
  313. Stream size                              : 44.1 KiB (0%)
  314. Language                                 : Dutch
  315. Default                                  : No
  316. Forced                                   : No
  317. Text #23
  318. ID                                       : 25
  319. Format                                   : UTF-8
  320. Codec ID                                 : S_TEXT/UTF8
  321. Codec ID/Info                            : UTF-8 Plain Text
  322. Duration                                 : 1 h 24 min
  323. Bit rate                                 : 74 b/s
  324. Count of elements                        : 1373
  325. Stream size                              : 46.4 KiB (0%)
  326. Language                                 : Polish
  327. Default                                  : No
  328. Forced                                   : No
  329. Text #24
  330. ID                                       : 26
  331. Format                                   : UTF-8
  332. Codec ID                                 : S_TEXT/UTF8
  333. Codec ID/Info                            : UTF-8 Plain Text
  334. Duration                                 : 1 h 24 min
  335. Bit rate                                 : 79 b/s
  336. Count of elements                        : 1359
  337. Stream size                              : 49.1 KiB (0%)
  338. Language                                 : Portuguese
  339. Default                                  : No
  340. Forced                                   : No
  341. Text #25
  342. ID                                       : 27
  343. Format                                   : UTF-8
  344. Codec ID                                 : S_TEXT/UTF8
  345. Codec ID/Info                            : UTF-8 Plain Text
  346. Duration                                 : 1 h 24 min
  347. Bit rate                                 : 77 b/s
  348. Count of elements                        : 1377
  349. Stream size                              : 48.3 KiB (0%)
  350. Title                                    : Brazilian
  351. Language                                 : Portuguese
  352. Default                                  : No
  353. Forced                                   : No
  354. Text #26
  355. ID                                       : 28
  356. Format                                   : UTF-8
  357. Codec ID                                 : S_TEXT/UTF8
  358. Codec ID/Info                            : UTF-8 Plain Text
  359. Duration                                 : 1 h 24 min
  360. Bit rate                                 : 87 b/s
  361. Count of elements                        : 1368
  362. Stream size                              : 54.0 KiB (0%)
  363. Language                                 : Romanian
  364. Default                                  : No
  365. Forced                                   : No
  366. Text #27
  367. ID                                       : 29
  368. Format                                   : UTF-8
  369. Codec ID                                 : S_TEXT/UTF8
  370. Codec ID/Info                            : UTF-8 Plain Text
  371. Duration                                 : 1 h 24 min
  372. Bit rate                                 : 123 b/s
  373. Count of elements                        : 1377
  374. Stream size                              : 76.3 KiB (0%)
  375. Language                                 : Russian
  376. Default                                  : No
  377. Forced                                   : No
  378. Text #28
  379. ID                                       : 30
  380. Format                                   : UTF-8
  381. Codec ID                                 : S_TEXT/UTF8
  382. Codec ID/Info                            : UTF-8 Plain Text
  383. Duration                                 : 1 h 24 min
  384. Bit rate                                 : 80 b/s
  385. Count of elements                        : 1065
  386. Stream size                              : 49.6 KiB (0%)
  387. Language                                 : Swedish
  388. Default                                  : No
  389. Forced                                   : No
  390. Text #29
  391. ID                                       : 31
  392. Format                                   : UTF-8
  393. Codec ID                                 : S_TEXT/UTF8
  394. Codec ID/Info                            : UTF-8 Plain Text
  395. Duration                                 : 1 h 24 min
  396. Bit rate                                 : 187 b/s
  397. Count of elements                        : 1414
  398. Stream size                              : 116 KiB (0%)
  399. Language                                 : Thai
  400. Default                                  : No
  401. Forced                                   : No
  402. Text #30
  403. ID                                       : 32
  404. Format                                   : UTF-8
  405. Codec ID                                 : S_TEXT/UTF8
  406. Codec ID/Info                            : UTF-8 Plain Text
  407. Duration                                 : 1 h 24 min
  408. Bit rate                                 : 80 b/s
  409. Count of elements                        : 1346
  410. Stream size                              : 50.1 KiB (0%)
  411. Language                                 : Turkish
  412. Default                                  : No
  413. Forced                                   : No
  414. Text #31
  415. ID                                       : 33
  416. Format                                   : UTF-8
  417. Codec ID                                 : S_TEXT/UTF8
  418. Codec ID/Info                            : UTF-8 Plain Text
  419. Duration                                 : 1 h 24 min
  420. Bit rate                                 : 126 b/s
  421. Count of elements                        : 1346
  422. Stream size                              : 78.6 KiB (0%)
  423. Language                                 : Ukrainian
  424. Default                                  : No
  425. Forced                                   : No
  426. Text #32
  427. ID                                       : 34
  428. Format                                   : UTF-8
  429. Codec ID                                 : S_TEXT/UTF8
  430. Codec ID/Info                            : UTF-8 Plain Text
  431. Duration                                 : 1 h 24 min
  432. Bit rate                                 : 109 b/s
  433. Count of elements                        : 1381
  434. Stream size                              : 67.6 KiB (0%)
  435. Language                                 : Vietnamese
  436. Default                                  : No
  437. Forced                                   : No
  438. Text #33
  439. ID                                       : 35
  440. Format                                   : UTF-8
  441. Codec ID                                 : S_TEXT/UTF8
  442. Codec ID/Info                            : UTF-8 Plain Text
  443. Duration                                 : 1 h 24 min
  444. Bit rate                                 : 82 b/s
  445. Count of elements                        : 1413
  446. Stream size                              : 51.3 KiB (0%)
  447. Title                                    : Simplified
  448. Language                                 : Chinese
  449. Default                                  : No
  450. Forced                                   : No
  451. Text #34
  452. ID                                       : 36
  453. Format                                   : UTF-8
  454. Codec ID                                 : S_TEXT/UTF8
  455. Codec ID/Info                            : UTF-8 Plain Text
  456. Duration                                 : 1 h 24 min
  457. Bit rate                                 : 73 b/s
  458. Count of elements                        : 1415
  459. Stream size                              : 45.7 KiB (0%)
  460. Title                                    : Traditional
  461. Language                                 : Chinese
  462. Default                                  : No
  463. Forced                                   : No
复制代码






                                       
                                       

                                       
                                       
                                       




回复

使用道具 举报

懒得打字嘛,点击右侧快捷回复 【右侧内容,后台自定义】
您需要登录后才可以回帖 登录 | 立即加入

本版积分规则

Archiver|小黑屋| 蓝光电影网 |网站地图

Copyright © 2021 Comsenz Inc. Powered by 蓝光电影网

蓝光电影网

本站内容由用户自主分享和转载自互联网,转载目的在于传递更多信息,并不代表本网赞同其观点和对其真实性负责。

如有侵权、违反国家法律政策行为,请联系我们,我们会第一时间及时清除和处理!

举报反馈邮箱:[email protected]

快速回复 返回顶部 返回列表