找回密码

蓝光电影网

查看: 171|回复: 1

[动作] 警醒 Jolt.2021.1080p.BluRay.REMUX.AVC.DTS-HD.MA.7.1-FGT 20.85GB

[复制链接]
蓝光币
730
发表于 2021-12-5 21:47:27 | 显示全部楼层 |阅读模式


◎译  名 警醒
◎片  名 Jolt
◎年  代 2021
◎产  地 美国
◎类  别 行动 / 惊悚
◎语  言 英语
◎上映日期 2021-07-23(美国)
◎豆瓣评分 5.6/10 from 2310 users
◎豆瓣链接 https://movie.douban.com/subject/33423676/
◎片  长 91分钟
◎导  演 谭雅·维克斯勒 Tanya Wexler
◎主  演 凯特·贝金赛尔 Kate Beckinsale
       斯坦利·图齐 Stanley Tucci
       鲍比·坎纳瓦尔 Bobby Cannavale
       苏珊·萨兰登 Susan Sarandon
       杰·科特尼 Jai Courtney
       大卫·布拉德利 David Bradley
       拉弗恩·考克斯 Laverne Cox
       克里斯蒂安·布拉辛顿 Christian Brassington
       奥利·普费弗 Ori Pfeffer
       康斯坦丁·格雷戈里 Constantine Gregory
       内森·库珀 Nathan Cooper
       哈里·阿尼奇金 Harry Anichkin
◎标  签 行动 | 凯特·贝金赛尔 | 美国 | 2021 | 美国电影 | 笑剧 | 惊悚 | katebeckinsale
◎简  介


  琳迪这个标致滑稽的女人有一个疾苦的奥秘:由于毕生的、罕有的神经紊乱,她履历了阵发性的狂怒杀人感动,处理方式只要用特别电极装配电自己。在一个惧怕她的希奇状态的天下里,她没法找到爱和联系,终极她信赖了一个汉子,并爱上了他,却发现第二天他被谋杀了。
  
  琳迪感应心碎和愤慨,她起头了一个复仇值拉满的使命,寻觅幕后杀手,与此同时,她也被差人作为这个案子的头号怀疑犯追捕着。
  1. Video
  2. ID                                       : 1
  3. ID in the original source medium         : 4113 (0x1011)
  4. Format                                   : AVC
  5. Format/Info                              : Advanced Video Codec
  6. Format profile                           : [email protected]
  7. Format settings                          : CABAC / 4 Ref Frames
  8. Format settings, CABAC                   : Yes
  9. Format settings, Reference frames        : 4 frames
  10. Codec ID                                 : V_MPEG4/ISO/AVC
  11. Duration                                 : 1 h 31 min
  12. Bit rate mode                            : Variable
  13. Bit rate                                 : 27.6 Mb/s
  14. Maximum bit rate                         : 33.0 Mb/s
  15. Width                                    : 1 920 pixels
  16. Height                                   : 1 080 pixels
  17. Display aspect ratio                     : 16:9
  18. Frame rate mode                          : Constant
  19. Frame rate                               : 24.000 FPS
  20. Color space                              : YUV
  21. Chroma subsampling                       : 4:2:0
  22. Bit depth                                : 8 bits
  23. Scan type                                : Progressive
  24. Bits/(Pixel*Frame)                       : 0.555
  25. Stream size                              : 17.6 GiB (85%)
  26. Language                                 : English
  27. Default                                  : No
  28. Forced                                   : No
  29. Original source medium                   : Blu-ray
  30. Audio
  31. ID                                       : 2
  32. ID in the original source medium         : 4353 (0x1101)
  33. Format                                   : DTS XLL
  34. Format/Info                              : Digital Theater Systems
  35. Commercial name                          : DTS-HD Master Audio
  36. Codec ID                                 : A_DTS
  37. Duration                                 : 1 h 31 min
  38. Bit rate mode                            : Variable
  39. Bit rate                                 : 4 997 kb/s
  40. Channel(s)                               : 8 channels
  41. Channel layout                           : C L R LFE Lb Rb Lss Rss
  42. Sampling rate                            : 48.0 kHz
  43. Frame rate                               : 93.750 FPS (512 SPF)
  44. Bit depth                                : 24 bits
  45. Compression mode                         : Lossless
  46. Stream size                              : 3.19 GiB (15%)
  47. Title                                    : DTS-HD MA 7.1
  48. Language                                 : English
  49. Default                                  : Yes
  50. Forced                                   : No
  51. Original source medium                   : Blu-ray
  52. Text #1
  53. ID                                       : 3
  54. Format                                   : UTF-8
  55. Codec ID                                 : S_TEXT/UTF8
  56. Codec ID/Info                            : UTF-8 Plain Text
  57. Duration                                 : 1 h 24 min
  58. Bit rate                                 : 61 b/s
  59. Count of elements                        : 1332
  60. Stream size                              : 38.3 KiB (0%)
  61. Language                                 : English
  62. Default                                  : Yes
  63. Forced                                   : No
  64. Text #2
  65. ID                                       : 4
  66. ID in the original source medium         : 4608 (0x1200)
  67. Format                                   : PGS
  68. Muxing mode                              : zlib
  69. Codec ID                                 : S_HDMV/PGS
  70. Codec ID/Info                            : Picture based subtitle format used on BDs/HD-DVDs
  71. Duration                                 : 1 h 30 min
  72. Bit rate                                 : 33.0 kb/s
  73. Count of elements                        : 2266
  74. Stream size                              : 21.4 MiB (0%)
  75. Language                                 : German
  76. Default                                  : No
  77. Forced                                   : No
  78. Original source medium                   : Blu-ray
  79. Text #3
  80. ID                                       : 5
  81. ID in the original source medium         : 4609 (0x1201)
  82. Format                                   : PGS
  83. Muxing mode                              : zlib
  84. Codec ID                                 : S_HDMV/PGS
  85. Codec ID/Info                            : Picture based subtitle format used on BDs/HD-DVDs
  86. Duration                                 : 1 h 29 min
  87. Bit rate                                 : 241 b/s
  88. Count of elements                        : 18
  89. Stream size                              : 158 KiB (0%)
  90. Language                                 : German
  91. Default                                  : No
  92. Forced                                   : No
  93. Original source medium                   : Blu-ray
  94. Text #4
  95. ID                                       : 6
  96. ID in the original source medium         : 4609 (0x1201)
  97. Format                                   : PGS
  98. Muxing mode                              : zlib
  99. Codec ID                                 : S_HDMV/PGS
  100. Codec ID/Info                            : Picture based subtitle format used on BDs/HD-DVDs
  101. Duration                                 : 44 min 39 s
  102. Bit rate                                 : 481 b/s
  103. Count of elements                        : 16
  104. Stream size                              : 158 KiB (0%)
  105. Language                                 : German
  106. Default                                  : No
  107. Forced                                   : No
  108. Original source medium                   : Blu-ray
  109. Menu
  110. 00:00:00.000                             : en:Chapter 01
  111. 00:11:20.875                             : en:Chapter 02
  112. 00:22:42.375                             : en:Chapter 03
  113. 00:32:00.666                             : en:Chapter 04
  114. 00:44:03.083                             : en:Chapter 05
  115. 00:51:41.708                             : en:Chapter 06
  116. 01:03:19.625                             : en:Chapter 07
  117. 01:15:45.250                             : en:Chapter 08
  118. 01:25:10.958                             : en:Chapter 09
复制代码





                                       
                                       

                                       
                                       
                                       




回复

使用道具 举报

蓝光币
1196
发表于 2021-12-6 22:08:54 | 显示全部楼层
楼主发贴辛苦了,谢谢楼主分享!我觉得蓝光电影网是注册对了!
回复 支持 反对

使用道具 举报

懒得打字嘛,点击右侧快捷回复 【右侧内容,后台自定义】
您需要登录后才可以回帖 登录 | 立即加入

本版积分规则

Archiver|小黑屋| 蓝光电影网 |网站地图

Copyright © 2021 Comsenz Inc. Powered by 蓝光电影网

蓝光电影网

本站内容由用户自主分享和转载自互联网,转载目的在于传递更多信息,并不代表本网赞同其观点和对其真实性负责。

如有侵权、违反国家法律政策行为,请联系我们,我们会第一时间及时清除和处理!

举报反馈邮箱:[email protected]

快速回复 返回顶部 返回列表