找回密码

蓝光电影网

查看: 4378|回复: 97

[2160p] 黑客帝国:矩阵重启/22世纪杀人网络:复活次元 [外挂中字]The.Matrix.4.Resurrections.2021.HDR.2160p.WEB.H265-PECULATE 19.32GB

  [复制链接]
蓝光币
733
发表于 2021-12-22 19:40:01 | 显示全部楼层 |阅读模式


◎译  名 黑客帝国:矩阵重启/22世纪杀人收集:新生次元(港)/骇客使命:新生(台)/骇客使命4/骇客帝国4/黑客帝国:复兴/黑客帝国4:矩阵更生
◎片  名 The Matrix Resurrections
◎年  代 2021
◎产  地 美国
◎类  别 行动 / 科幻
◎语  言 英语
◎上映日期 2021-12-22(美国) / 2022-01-14(中国大陆)
◎豆瓣评分 /10 from 0 users
◎豆瓣链接 https://movie.douban.com/subject/34801038/
◎片  长 147分钟
◎导  演 拉娜·沃卓斯基 Lana Wachowski
◎编  剧 拉娜·沃卓斯基 Lana Wachowski / 大卫·米切尔 David Mitchell / 亚历山大·赫蒙 Aleksandar Hemon
◎主  演 基努·里维斯 Keanu Reeves
       凯瑞-安·莫斯 Carrie-Anne Moss
       叶海亚·阿卜杜勒-迈丁 Yahya Abdul-Mateen II
       杰西卡·亨维克 Jessica Henwick
       乔纳森·格罗夫 Jonathan Groff
       尼尔·帕特里克·哈里斯 Neil Patrick Harris
       佩丽冉卡·曹帕拉 Priyanka Chopra
       克里斯蒂娜·里奇 Christina Ricci
       特尔玛·霍普金斯 Telma Hopkins
       埃伦迪拉·伊瓦拉 Eréndira Ibarra
       托比·奥伍梅尔 Toby Onwumere
       马克思·雷迈特 Max Riemelt
       布莱恩·J·史姑娘 Brian J. Smith
       贾达·萍克·史姑娘 Jada Pinkett Smith
       丹尼尔·伯哈特 Daniel Bernhardt
       艾伦·霍尔曼 Ellen Hollman
       朗贝尔·维尔森 Lambert Wilson
       安德鲁·卡德威尔 Andrew Caldwell
       伊恩·皮里 Ian Pirie
       威廉·W·巴伯 William W. Barbour
       埃尔文·费利西达 Erwin Felicilda
       迈克尔·J·格温 Michael J. Gwynn
       Linda Joy Henry Linda Joy Henry
       约翰·洛巴托 John Lobato
       安妮-玛丽·奥尔森 Anne-Marie Olsen
       艾蒂安·维克 Etienne Vick
       克莱顿·华生 Clayton Watson
       詹姆斯·D·韦斯顿二世 James D. Weston II
◎标  签 科幻 | 黑客帝国 | 典范 | 美国 | 赛博朋克 | 行动 | 哲学 | 2021
◎简  介


  尼奥(基努·里维斯 Keanu Reeves 饰)和崔妮蒂(凯瑞-安·莫斯 Carrie-Anne Moss 饰)重回矩阵:在这里,一个是矩阵缔造出来,循环往复的平常天下,另一个则是隐藏厥后,实在的人类天下。为了弄清楚自己所处的“现实”究竟是真是假,尼奥不能不再次做出挑选……
◎获奖情况
  第7届豆瓣电影年度榜单 ?(2020)
  最值得期待的外语电影(提名)
  1. Video
  2. ID                                       : 1
  3. Format                                   : HEVC
  4. Format/Info                              : High Efficiency Video Coding
  5. Format profile                           : Main [email protected]@Main
  6. HDR format                               : SMPTE ST 2086, HDR10 compatible
  7. Codec ID                                 : V_MPEGH/ISO/HEVC
  8. Duration                                 : 2 h 27 min
  9. Bit rate                                 : 17.8 Mb/s
  10. Width                                    : 3 840 pixels
  11. Height                                   : 2 160 pixels
  12. Display aspect ratio                     : 16:9
  13. Frame rate mode                          : Constant
  14. Frame rate                               : 23.976 (24000/1001/189150) FPS
  15. Color space                              : YUV
  16. Chroma subsampling                       : 4:2:0
  17. Bit depth                                : 10 bits
  18. Bits/(Pixel*Frame)                       : 0.090
  19. Stream size                              : 18.4 GiB (96%)
  20. Writing library                          : x265 3.4hy:[Linux][GCC 7.5.0][64 bit] 10bit
  21. Encoding settings                        : cpuid=1111039 / frame-threads=1 / wpp / no-pmode / no-pme / no-psnr / no-ssim / log-level=2 / input-csp=1 / input-res=3840x2160 / interlace=0 / total-frames=0 / level-idc=0 / high-tier=1 / uhd-bd=0 / ref=4 / no-allow-non-conformance / repeat-headers / annexb / no-aud / no-hrd / info / hash=0 / no-temporal-layers / no-open-gop / min-keyint=96 / keyint=96 / gop-lookahead=0 / bframes=3 / b-adapt=2 / b-pyramid / bframe-bias=0 / rc-lookahead=25 / lookahead-slices=4 / scenecut=40 / hist-scenecut=0 / radl=0 / no-splice / no-intra-refresh / ctu=64 / min-cu-size=8 / rect / no-amp / max-tu-size=32 / tu-inter-depth=1 / tu-intra-depth=1 / limit-tu=0 / rdoq-level=2 / dynamic-rd=0.00 / no-ssim-rd / signhide / no-tskip / nr-intra=0 / nr-inter=0 / no-constrained-intra / strong-intra-smoothing / max-merge=3 / limit-refs=3 / limit-modes / me=3 / subme=3 / merange=57 / temporal-mvp / no-frame-dup / no-hme / weightp / no-weightb / no-analyze-src-pics / deblock=0:0 / sao / no-sao-non-deblock / rd=4 / selective-sao=4 / no-early-skip / rskip / no-fast-intra / no-tskip-fast / no-cu-lossless / no-b-intra / no-splitrd-skip / rdpenalty=0 / psy-rd=2.00 / psy-rdoq=1.00 / no-rd-refine / no-lossless / cbqpoffs=0 / crqpoffs=0 / rc=abr / bitrate=18000 / qcomp=0.60 / qpstep=4 / stats-write=0 / stats-read=2 / cplxblur=20.0 / qblur=0.5 / vbv-maxrate=24500 / vbv-bufsize=24500 / vbv-init=0.6 / vbv-end=0.6 / vbv-end-fr-adj=0.0 / ipratio=1.40 / pbratio=1.30 / aq-mode=2 / aq-strength=1.00 / cutree / zone-count=0 / no-strict-cbr / qg-size=32 / no-rc-grain / qpmax=69 / qpmin=0 / no-const-vbv / sar=0 / overscan=0 / videoformat=5 / range=0 / colorprim=9 / transfer=16 / colormatrix=9 / chromaloc=0 / display-window=0 / master-display=G(13250,34500)B(7500,3000)R(34000,16000)WP(15635,16450)L(40000000,50) / cll=1044,648 / min-luma=0 / max-luma=1023 / log2-max-poc-lsb=8 / vui-timing-info / vui-hrd-info / no-concatenation / slices=1 / no-opt-qp-pps / no-opt-ref-list-length-pps / no-multi-pass-opt-rps / scenecut-bias=0.05 / hist-threshold=0.01 / no-opt-cu-delta-qp / no-aq-motion / hdr10 / no-hdr10-opt / no-dhdr10-opt / no-idr-recovery-sei / analysis-reuse-level=0 / analysis-save-reuse-level=0 / analysis-load-reuse-level=0 / scale-factor=0 / refine-intra=0 / refine-inter=0 / refine-mv=1 / refine-ctu-distortion=0 / no-limit-sao / ctu-info=0 / no-lowpass-dct / refine-analysis-type=0 / copy-pic=1 / max-ausize-factor=1.0 / no-dynamic-refine / no-single-sei / no-hevc-aq / no-svt / no-field / qp-adaptation-range=1.00 / no-scenecut-aware-qpconformance-window-offsets / right=0 / bottom=0 / decoder-max-rate=0
  22. Language                                 : English
  23. Default                                  : Yes
  24. Forced                                   : No
  25. Color range                              : Limited
  26. Color primaries                          : BT.2020
  27. Transfer characteristics                 : PQ
  28. Matrix coefficients                      : BT.2020 non-constant
  29. Mastering display color primaries        : Display P3
  30. Mastering display luminance              : min: 0.0050 cd/m2, max: 4000 cd/m2
  31. Maximum Content Light Level              : 1044 cd/m2
  32. Maximum Frame-Average Light Level        : 648 cd/m2
  33. Audio
  34. ID                                       : 2
  35. Format                                   : E-AC-3 JOC
  36. Format/Info                              : Enhanced AC-3 with Joint Object Coding
  37. Commercial name                          : Dolby Digital Plus with Dolby Atmos
  38. Codec ID                                 : A_EAC3
  39. Duration                                 : 2 h 27 min
  40. Bit rate mode                            : Constant
  41. Bit rate                                 : 768 kb/s
  42. Channel(s)                               : 6 channels
  43. Channel layout                           : L R C LFE Ls Rs
  44. Sampling rate                            : 48.0 kHz
  45. Frame rate                               : 31.250 FPS (1536 SPF)
  46. Compression mode                         : Lossy
  47. Stream size                              : 813 MiB (4%)
  48. Language                                 : English
  49. Service kind                             : Complete Main
  50. Default                                  : Yes
  51. Forced                                   : No
  52. Complexity index                         : 16
  53. Number of dynamic objects                : 15
  54. Bed channel count                        : 1 channel
  55. Bed channel configuration                : LFE
  56. Text #1
  57. ID                                       : 3
  58. Format                                   : UTF-8
  59. Codec ID                                 : S_TEXT/UTF8
  60. Codec ID/Info                            : UTF-8 Plain Text
  61. Duration                                 : 2 h 27 min
  62. Bit rate                                 : 51 b/s
  63. Count of elements                        : 2185
  64. Stream size                              : 55.7 KiB (0%)
  65. Title                                    : English [CC]
  66. Language                                 : English
  67. Default                                  : No
  68. Forced                                   : No
  69. Text #2
  70. ID                                       : 4
  71. Format                                   : UTF-8
  72. Codec ID                                 : S_TEXT/UTF8
  73. Codec ID/Info                            : UTF-8 Plain Text
  74. Duration                                 : 2 h 27 min
  75. Bit rate                                 : 52 b/s
  76. Count of elements                        : 2129
  77. Stream size                              : 57.1 KiB (0%)
  78. Title                                    : Latin American Spanish [CC]
  79. Language                                 : Spanish
  80. Default                                  : No
  81. Forced                                   : No
复制代码




                                       
                                       

                                       
                                       
                                       





字幕:

回复

使用道具 举报

蓝光币
2
发表于 2021-12-22 20:08:07 | 显示全部楼层
看一下经典重开
回复 支持 反对

使用道具 举报

蓝光币
2
发表于 2021-12-22 20:09:28 | 显示全部楼层
充裕等到这个新片子啦
回复 支持 反对

使用道具 举报

蓝光币
0
发表于 2021-12-22 20:59:11 | 显示全部楼层
好好好好好好!
回复 支持 反对

使用道具 举报

蓝光币
48
发表于 2021-12-22 21:40:56 | 显示全部楼层
谢谢分享!
回复

使用道具 举报

蓝光币
15
发表于 2021-12-22 21:41:34 | 显示全部楼层
支持  非常快
回复 支持 反对

使用道具 举报

蓝光币
263
发表于 2021-12-22 21:56:42 | 显示全部楼层
这速度不要太快,还没上映就有了
回复 支持 反对

使用道具 举报

蓝光币
9
发表于 2021-12-22 22:44:19 | 显示全部楼层

楼主太厉害了!楼主,电影应该很好看我觉得蓝光电影网真是个好地方!
回复 支持 反对

使用道具 举报

蓝光币
2
发表于 2021-12-22 23:12:15 | 显示全部楼层
谢谢大佬
回复

使用道具 举报

蓝光币
1
发表于 2021-12-23 00:06:09 | 显示全部楼层
经典永不过时!
回复 支持 反对

使用道具 举报

懒得打字嘛,点击右侧快捷回复 【右侧内容,后台自定义】
您需要登录后才可以回帖 登录 | 立即加入

本版积分规则

Archiver|小黑屋| 蓝光电影网 |网站地图

Copyright © 2021 Comsenz Inc. Powered by 蓝光电影网

蓝光电影网

本站内容由用户自主分享和转载自互联网,转载目的在于传递更多信息,并不代表本网赞同其观点和对其真实性负责。

如有侵权、违反国家法律政策行为,请联系我们,我们会第一时间及时清除和处理!

举报反馈邮箱:[email protected]

快速回复 返回顶部 返回列表