找回密码

蓝光电影网

查看: 564|回复: 11

[2160p] 永恒族 Eternals.2021.IMAX.2160p.DSNP.WEB-DL.DDP5.1.Atmos.DV.MKV.x265-MZABI 18.74GB

[复制链接]
蓝光币
730
发表于 2022-1-14 11:51:55 | 显示全部楼层 |阅读模式


◎译  名 永久族/The Eternals/永久神族
◎片  名 Eternals
◎年  代 2021
◎产  地 美国
◎类  别 行动 / 科幻 / 奇异 / 冒险
◎语  言 英语,美国手语,西班牙语,拉丁语,古希腊语
◎上映日期 2021-11-05(美国)
◎豆瓣评分 6.1/10 from 30447 users
◎豆瓣链接 https://movie.douban.com/subject/30223888/
◎片  长 157分钟
◎导  演 赵婷 Chloé Zhao
◎编  剧 赵婷 Chloé Zhao / 帕特里克·伯利 Patrick Burleigh / 瑞恩·弗雷波 Ryan Firpo / 马修·弗雷波 Matthew K. Firpo / 杰克·科比 Jack Kirby
◎主  演 嘉玛·陈 Gemma Chan
       理查德·麦登 Richard Madden
       安吉丽娜·朱莉 Angelina Jolie
       萨尔玛·海耶克 Salma Hayek
       库梅尔·南贾尼 Kumail Nanjiani
       莉亚·麦克休 Lia McHugh
       布莱恩·泰里·亨利 Brian Tyree Henry
       劳伦·利德洛夫 Lauren Ridloff
       巴里·基奥恩 Barry Keoghan
       马东锡 Don Lee
       基特·哈灵顿 Kit Harington
       哈里什·帕特尔 Harish Patel
       比尔·斯卡斯加德 Bill Skarsg?rd
       哈斯·塞雷曼 Haaz Sleiman
       以扫·丹尼尔·克罗斯 Esai Daniel Cross
       哈里·斯泰尔斯 Harry Styles
       艾伦·斯科特 Alan Scott
       汉娜·多德 Hannah Dodd
       妮基塔·查达哈 Nikkita Chadha
       格雷厄姆·福克斯 Grahame Fox
       赞恩·阿尔·拉菲亚 Zain al-Rafeea
       卢西娅·埃夫斯塔希奥 Lucia Efstathiou
       帕顿·奥斯瓦尔特 Patton Oswalt
       大卫·卡耶 David Kaye
       马赫沙拉·阿里 Mahershala Ali
       布伦达·洛伦娜·加西亚 Brenda Lorena Garcia
       吉安尼·卡尔切蒂 Gianni Calchetti
◎简  介


  漫威影业出品的《永久族》报告了一群太古豪杰的故事。他们来自于悠远的星球,从人类诞生之初就庇护着地球。当已销声匿迹多时的异常族怪物奥秘地东山复兴时,永久族被迫重新团圆,以再次庇护人类。
  1. Video
  2. ID                                       : 1
  3. Format                                   : HEVC
  4. Format/Info                              : High Efficiency Video Coding
  5. Format profile                           : Main [email protected]@High
  6. HDR format                               : Dolby Vision, Version 1.0, dvhe.05.06, BL+RPU
  7. Codec ID                                 : V_MPEGH/ISO/HEVC
  8. Duration                                 : 2 h 35 min
  9. Bit rate                                 : 16.4 Mb/s
  10. Width                                    : 3 840 pixels
  11. Height                                   : 2 160 pixels
  12. Display aspect ratio                     : 16:9
  13. Frame rate mode                          : Constant
  14. Frame rate                               : 23.976 (24000/1001/189150) FPS
  15. Color space                              : YUV
  16. Chroma subsampling                       : 4:2:0
  17. Bit depth                                : 10 bits
  18. Bits/(Pixel*Frame)                       : 0.083
  19. Stream size                              : 17.9 GiB (96%)
  20. Default                                  : Yes
  21. Forced                                   : No
  22. Color range                              : Full

  23. Audio
  24. ID                                       : 2
  25. Format                                   : E-AC-3 JOC
  26. Format/Info                              : Enhanced AC-3 with Joint Object Coding
  27. Commercial name                          : Dolby Digital Plus with Dolby Atmos
  28. Codec ID                                 : A_EAC3
  29. Duration                                 : 2 h 35 min
  30. Bit rate mode                            : Constant
  31. Bit rate                                 : 768 kb/s
  32. Channel(s)                               : 6 channels
  33. Channel layout                           : L R C LFE Ls Rs
  34. Sampling rate                            : 48.0 kHz
  35. Frame rate                               : 31.250 FPS (1536 SPF)
  36. Compression mode                         : Lossy
  37. Stream size                              : 856 MiB (4%)
  38. Title                                    : English
  39. Language                                 : English
  40. Service kind                             : Complete Main
  41. Default                                  : Yes
  42. Forced                                   : No
  43. Complexity index                         : 16
  44. Number of dynamic objects                : 15
  45. Bed channel count                        : 1 channel
  46. Bed channel configuration                : LFE

  47. Text #1
  48. ID                                       : 3
  49. Format                                   : UTF-8
  50. Codec ID                                 : S_TEXT/UTF8
  51. Codec ID/Info                            : UTF-8 Plain Text
  52. Duration                                 : 2 h 33 min
  53. Bit rate                                 : 41 b/s
  54. Count of elements                        : 1787
  55. Stream size                              : 46.5 KiB (0%)
  56. Title                                    : English
  57. Language                                 : English
  58. Default                                  : No
  59. Forced                                   : No

  60. Text #2
  61. ID                                       : 4
  62. Format                                   : UTF-8
  63. Codec ID                                 : S_TEXT/UTF8
  64. Codec ID/Info                            : UTF-8 Plain Text
  65. Duration                                 : 2 h 33 min
  66. Bit rate                                 : 52 b/s
  67. Count of elements                        : 2212
  68. Stream size                              : 59.0 KiB (0%)
  69. Title                                    : English [SDH]
  70. Language                                 : English
  71. Default                                  : No
  72. Forced                                   : No

  73. Text #3
  74. ID                                       : 5
  75. Format                                   : UTF-8
  76. Codec ID                                 : S_TEXT/UTF8
  77. Codec ID/Info                            : UTF-8 Plain Text
  78. Duration                                 : 2 h 32 min
  79. Bit rate                                 : 1 b/s
  80. Count of elements                        : 81
  81. Stream size                              : 1.78 KiB (0%)
  82. Title                                    : English [Forced]
  83. Language                                 : English
  84. Default                                  : No
  85. Forced                                   : Yes

  86. Text #4
  87. ID                                       : 6
  88. Format                                   : UTF-8
  89. Codec ID                                 : S_TEXT/UTF8
  90. Codec ID/Info                            : UTF-8 Plain Text
  91. Duration                                 : 2 h 35 min
  92. Bit rate                                 : 37 b/s
  93. Count of elements                        : 1108
  94. Stream size                              : 42.5 KiB (0%)
  95. Title                                    : Danish
  96. Language                                 : Danish
  97. Default                                  : No
  98. Forced                                   : No

  99. Text #5
  100. ID                                       : 7
  101. Format                                   : UTF-8
  102. Codec ID                                 : S_TEXT/UTF8
  103. Codec ID/Info                            : UTF-8 Plain Text
  104. Duration                                 : 2 h 35 min
  105. Bit rate                                 : 37 b/s
  106. Count of elements                        : 1514
  107. Stream size                              : 42.3 KiB (0%)
  108. Title                                    : German
  109. Language                                 : German
  110. Default                                  : No
  111. Forced                                   : No

  112. Text #6
  113. ID                                       : 8
  114. Format                                   : UTF-8
  115. Codec ID                                 : S_TEXT/UTF8
  116. Codec ID/Info                            : UTF-8 Plain Text
  117. Duration                                 : 2 h 35 min
  118. Bit rate                                 : 41 b/s
  119. Count of elements                        : 1645
  120. Stream size                              : 47.6 KiB (0%)
  121. Title                                    : Spanish Latin America
  122. Language                                 : Spanish
  123. Default                                  : No
  124. Forced                                   : No

  125. Text #7
  126. ID                                       : 9
  127. Format                                   : UTF-8
  128. Codec ID                                 : S_TEXT/UTF8
  129. Codec ID/Info                            : UTF-8 Plain Text
  130. Duration                                 : 2 h 35 min
  131. Bit rate                                 : 39 b/s
  132. Count of elements                        : 1640
  133. Stream size                              : 44.6 KiB (0%)
  134. Title                                    : Spanish Spain
  135. Language                                 : Spanish
  136. Default                                  : No
  137. Forced                                   : No

  138. Text #8
  139. ID                                       : 10
  140. Format                                   : UTF-8
  141. Codec ID                                 : S_TEXT/UTF8
  142. Codec ID/Info                            : UTF-8 Plain Text
  143. Duration                                 : 2 h 35 min
  144. Bit rate                                 : 41 b/s
  145. Count of elements                        : 1666
  146. Stream size                              : 47.8 KiB (0%)
  147. Title                                    : Finnish
  148. Language                                 : Finnish
  149. Default                                  : No
  150. Forced                                   : No

  151. Text #9
  152. ID                                       : 11
  153. Format                                   : UTF-8
  154. Codec ID                                 : S_TEXT/UTF8
  155. Codec ID/Info                            : UTF-8 Plain Text
  156. Duration                                 : 2 h 35 min
  157. Bit rate                                 : 44 b/s
  158. Count of elements                        : 1694
  159. Stream size                              : 50.3 KiB (0%)
  160. Title                                    : French Canada
  161. Language                                 : French
  162. Default                                  : No
  163. Forced                                   : No

  164. Text #10
  165. ID                                       : 12
  166. Format                                   : UTF-8
  167. Codec ID                                 : S_TEXT/UTF8
  168. Codec ID/Info                            : UTF-8 Plain Text
  169. Duration                                 : 2 h 35 min
  170. Bit rate                                 : 37 b/s
  171. Count of elements                        : 1585
  172. Stream size                              : 42.5 KiB (0%)
  173. Title                                    : French France
  174. Language                                 : French
  175. Default                                  : No
  176. Forced                                   : No

  177. Text #11
  178. ID                                       : 13
  179. Format                                   : UTF-8
  180. Codec ID                                 : S_TEXT/UTF8
  181. Codec ID/Info                            : UTF-8 Plain Text
  182. Duration                                 : 2 h 35 min
  183. Bit rate                                 : 41 b/s
  184. Count of elements                        : 1644
  185. Stream size                              : 47.8 KiB (0%)
  186. Title                                    : Icelandic
  187. Language                                 : Icelandic
  188. Default                                  : No
  189. Forced                                   : No

  190. Text #12
  191. ID                                       : 14
  192. Format                                   : UTF-8
  193. Codec ID                                 : S_TEXT/UTF8
  194. Codec ID/Info                            : UTF-8 Plain Text
  195. Duration                                 : 2 h 35 min
  196. Bit rate                                 : 41 b/s
  197. Count of elements                        : 1645
  198. Stream size                              : 47.7 KiB (0%)
  199. Title                                    : Italian
  200. Language                                 : Italian
  201. Default                                  : No
  202. Forced                                   : No

  203. Text #13
  204. ID                                       : 15
  205. Format                                   : UTF-8
  206. Codec ID                                 : S_TEXT/UTF8
  207. Codec ID/Info                            : UTF-8 Plain Text
  208. Duration                                 : 2 h 35 min
  209. Bit rate                                 : 36 b/s
  210. Count of elements                        : 1495
  211. Stream size                              : 41.7 KiB (0%)
  212. Title                                    : Japanese
  213. Language                                 : Japanese
  214. Default                                  : No
  215. Forced                                   : No

  216. Text #14
  217. ID                                       : 16
  218. Format                                   : UTF-8
  219. Codec ID                                 : S_TEXT/UTF8
  220. Codec ID/Info                            : UTF-8 Plain Text
  221. Duration                                 : 2 h 35 min
  222. Bit rate                                 : 43 b/s
  223. Count of elements                        : 1656
  224. Stream size                              : 49.6 KiB (0%)
  225. Title                                    : Korean
  226. Language                                 : Korean
  227. Default                                  : No
  228. Forced                                   : No

  229. Text #15
  230. ID                                       : 17
  231. Format                                   : UTF-8
  232. Codec ID                                 : S_TEXT/UTF8
  233. Codec ID/Info                            : UTF-8 Plain Text
  234. Duration                                 : 2 h 35 min
  235. Bit rate                                 : 39 b/s
  236. Count of elements                        : 1400
  237. Stream size                              : 44.9 KiB (0%)
  238. Title                                    : Dutch
  239. Language                                 : Dutch
  240. Default                                  : No
  241. Forced                                   : No

  242. Text #16
  243. ID                                       : 18
  244. Format                                   : UTF-8
  245. Codec ID                                 : S_TEXT/UTF8
  246. Codec ID/Info                            : UTF-8 Plain Text
  247. Duration                                 : 2 h 35 min
  248. Bit rate                                 : 38 b/s
  249. Count of elements                        : 1653
  250. Stream size                              : 43.7 KiB (0%)
  251. Title                                    : Norwegian
  252. Language                                 : Norwegian
  253. Default                                  : No
  254. Forced                                   : No

  255. Text #17
  256. ID                                       : 19
  257. Format                                   : UTF-8
  258. Codec ID                                 : S_TEXT/UTF8
  259. Codec ID/Info                            : UTF-8 Plain Text
  260. Duration                                 : 2 h 35 min
  261. Bit rate                                 : 37 b/s
  262. Count of elements                        : 1602
  263. Stream size                              : 43.0 KiB (0%)
  264. Title                                    : Polish
  265. Language                                 : Polish
  266. Default                                  : No
  267. Forced                                   : No

  268. Text #18
  269. ID                                       : 20
  270. Format                                   : UTF-8
  271. Codec ID                                 : S_TEXT/UTF8
  272. Codec ID/Info                            : UTF-8 Plain Text
  273. Duration                                 : 2 h 35 min
  274. Bit rate                                 : 40 b/s
  275. Count of elements                        : 1652
  276. Stream size                              : 46.3 KiB (0%)
  277. Title                                    : Portuguese Brazil
  278. Language                                 : Portuguese
  279. Default                                  : No
  280. Forced                                   : No

  281. Text #19
  282. ID                                       : 21
  283. Format                                   : UTF-8
  284. Codec ID                                 : S_TEXT/UTF8
  285. Codec ID/Info                            : UTF-8 Plain Text
  286. Duration                                 : 2 h 35 min
  287. Bit rate                                 : 40 b/s
  288. Count of elements                        : 1635
  289. Stream size                              : 46.0 KiB (0%)
  290. Title                                    : Portuguese Portugal
  291. Language                                 : Portuguese
  292. Default                                  : No
  293. Forced                                   : No

  294. Text #20
  295. ID                                       : 22
  296. Format                                   : UTF-8
  297. Codec ID                                 : S_TEXT/UTF8
  298. Codec ID/Info                            : UTF-8 Plain Text
  299. Duration                                 : 2 h 35 min
  300. Bit rate                                 : 38 b/s
  301. Count of elements                        : 1316
  302. Stream size                              : 44.4 KiB (0%)
  303. Title                                    : Swedish
  304. Language                                 : Swedish
  305. Default                                  : No
  306. Forced                                   : No

  307. Text #21
  308. ID                                       : 23
  309. Format                                   : UTF-8
  310. Codec ID                                 : S_TEXT/UTF8
  311. Codec ID/Info                            : UTF-8 Plain Text
  312. Duration                                 : 2 h 35 min
  313. Bit rate                                 : 33 b/s
  314. Count of elements                        : 1663
  315. Stream size                              : 37.8 KiB (0%)
  316. Title                                    : Chinese Hong Kong Sar China
  317. Language                                 : Chinese
  318. Default                                  : No
  319. Forced                                   : No

  320. Text #22
  321. ID                                       : 24
  322. Format                                   : UTF-8
  323. Codec ID                                 : S_TEXT/UTF8
  324. Codec ID/Info                            : UTF-8 Plain Text
  325. Duration                                 : 2 h 35 min
  326. Bit rate                                 : 36 b/s
  327. Count of elements                        : 1661
  328. Stream size                              : 41.7 KiB (0%)
  329. Title                                    : Chinese Simplified
  330. Language                                 : Chinese
  331. Default                                  : No
  332. Forced                                   : No

  333. Text #23
  334. ID                                       : 25
  335. Format                                   : UTF-8
  336. Codec ID                                 : S_TEXT/UTF8
  337. Codec ID/Info                            : UTF-8 Plain Text
  338. Duration                                 : 2 h 35 min
  339. Bit rate                                 : 34 b/s
  340. Count of elements                        : 1679
  341. Stream size                              : 39.7 KiB (0%)
  342. Title                                    : Chinese Traditional
  343. Language                                 : Chinese
  344. Default                                  : No
  345. Forced                                   : No
复制代码







                                       
                                       

                                       
                                       
                                       




回复

使用道具 举报

蓝光币
0
发表于 2022-1-14 13:04:40 | 显示全部楼层
楼主发贴辛苦了,谢谢楼主分享!我觉得蓝光电影网是注册对了!
回复 支持 反对

使用道具 举报

蓝光币
0
发表于 2022-1-14 13:05:51 | 显示全部楼层

楼主太厉害了!楼主,电影应该很好看我觉得蓝光电影网真是个好地方!
回复 支持 反对

使用道具 举报

蓝光币
52
发表于 2022-1-14 20:04:21 | 显示全部楼层
蓝光电影网是个好地方
回复 支持 反对

使用道具 举报

蓝光币
0
发表于 2022-1-15 13:32:28 | 显示全部楼层

楼主太厉害了!楼主,电影应该很好看我觉得蓝光电影网真是个好地方!
回复 支持 反对

使用道具 举报

蓝光币
0
发表于 2022-1-15 13:37:25 | 显示全部楼层
感谢楼主的分享啊啊啊啊啊
回复 支持 反对

使用道具 举报

蓝光币
39
发表于 2022-1-15 17:18:14 | 显示全部楼层
感谢分享  好人啊 ~~~~~~~~~~
回复 支持 反对

使用道具 举报

蓝光币
1
发表于 7 天前 | 显示全部楼层
楼主发贴辛苦了,谢谢楼主分享!我觉得蓝光电影网是注册对了!
回复 支持 反对

使用道具 举报

蓝光币
15
发表于 7 天前 | 显示全部楼层
感谢楼主分享!!!
回复 支持 反对

使用道具 举报

蓝光币
326
发表于 5 天前 | 显示全部楼层

楼主太厉害了!楼主,电影应该很好看我觉得蓝光电影网真是个好地方!
回复 支持 反对

使用道具 举报

懒得打字嘛,点击右侧快捷回复 【右侧内容,后台自定义】
您需要登录后才可以回帖 登录 | 立即加入

本版积分规则

Archiver|小黑屋| 蓝光电影网 |网站地图

Copyright © 2021 Comsenz Inc. Powered by 蓝光电影网

蓝光电影网

本站内容由用户自主分享和转载自互联网,转载目的在于传递更多信息,并不代表本网赞同其观点和对其真实性负责。

如有侵权、违反国家法律政策行为,请联系我们,我们会第一时间及时清除和处理!

举报反馈邮箱:[email protected]

快速回复 返回顶部 返回列表