找回密码

蓝光电影网

查看: 93|回复: 0

[2160p] 加勒比海盗4:惊涛怪浪 Pirates.of.the.Caribbean.On.Stranger.Tides.2011.2160p.BluRay.x265.10bit.SDR.DTS-HD.MA.TrueHD.7.1.Atmos-SWTYBLZ 28.83GB

[复制链接]
蓝光币
730
发表于 2022-1-14 11:55:59 | 显示全部楼层 |阅读模式


◎译  名 加勒比海盗4:惊涛怪浪/Pirates 4/加勒比海盗 神鬼奇航:鬼魂海(台)/加勒比海盗:魔盗怒潮(港)/加勒比海盗4:陌生的潮汐
◎片  名 Pirates of the Caribbean: On Stranger Tides
◎年  代 2011
◎产  地 美国
◎类  别 行动 / 奇异 / 冒险
◎语  言 英语
◎上映日期 2011-05-20(美国/中国大陆)
◎豆瓣评分 7.8/10 from 332478 users
◎豆瓣链接 https://movie.douban.com/subject/3227410/
◎片  长 136分钟
◎导  演 罗伯·马歇尔 Rob Marshall
◎编  剧 泰德·艾略特 Ted Elliott / 特里·鲁西奥 Terry Rossio / 斯图尔特·贝亚蒂耶 Stuart Beattie / 杰·沃尔伯特 Jay Wolpert
◎主  演 约翰尼·德普 Johnny Depp
       佩内洛普·克鲁兹 Penélope Cruz
       杰弗里·拉什 Geoffrey Rush
       伊恩·麦柯肖恩 Ian McShane
       凯文·麦克纳利 Kevin McNally
       山姆·克拉弗林 Sam Claflin
       阿斯特丽德·伯格斯-弗瑞斯贝 àstrid Bergès-Frisbey
       斯蒂芬·格拉汉姆 Stephen Graham
       凯斯·理查德兹 Keith Richards
       理查德·格雷弗斯 Richard Griffiths
       格雷格·埃利斯 Greg Ellis
       达米恩·奥哈尔 Damian O'Hare
       奥斯卡·贾恩那达 óscar Jaenada
       安东·莱瑟 Anton Lesser
       罗杰·阿拉姆 Roger Allam
       朱迪·丹奇 Judi Dench
       克里斯托弗·法里班克 Christopher Fairbank
       保罗·巴泽利 Paul Bazely
       布隆森·韦伯 Bronson Webb
       理查德·汤姆森 Richard Thomson
       松崎悠希 Yuki Matsuzaki
       罗比·凯 Robbie Kay
       斯蒂夫·艾弗茨 Steve Evets
       Ian Mercer Ian Mercer
       道比·欧帕瑞 Deobia Oparei
       嘉玛·沃德 Gemma Ward
       塞巴斯蒂安·阿梅斯托 Sebastian Armesto
       胡安·卡洛斯·凡希多 Juan Carlos Vellido
       杰拉德·摩纳科 Gerard Monaco
       卢克·罗伯茨 Luke Roberts
       丹尼尔·英格斯 Daniel Ings
       艾米莉亚·琼斯 Emilia Jones
       帕特里克·肯尼迪 Patrick Kennedy
       Jody Halse Jody Halse
       克利福德·罗斯 Clifford Rose
       Sanya Hughes Sanya Hughes
       达芙妮 Daphne Joy
       安托瓦内特·尼普莱拉 Antoinette Nikprelaj
       德里克·梅耶斯 Derek Mears
       金塔雷·贝尼奥拉维特 Gintare Beinoraviciute
       贝恩·科拉科 Bern Colla?o
       埃利奥特·克罗斯利 Elliott Crossley
        Kit Farrell
       尼可拉·芬恩 Nichola Fynn
       鲍比·霍兰德·汉顿 Bobby Holland Hanton
        Harley Jay
       杰瑞米·金 Jeremy King
       特蕾莎·马奥尼 Teresa Mahoney
       让·皮埃尔·普拉茨 Jean Pierre Prats
       克里斯滕·史蒂芬森皮诺 Kristen StephensonPino
       哈维·沃尔什 Harvey Walsh
       陆建艺 Jianyi Lu
       季冠霖 Guanlin Ji
       金永钢 Yonggang Jin
◎简  介


  迪士尼《加勒比海盗4》豆瓣小站:http://site.douban.com/disneymovie/
  
  因故在伦敦盘桓时代,杰克·斯派罗船主(约翰尼·德普 Johnny Depp 饰)被英国国王的兵士捉住。本来传闻中的“不老泉”重现人间,为了赶在西班牙之前得手。英国国王乔治二世(Richard Griffiths 饰)希望杰克和巴波萨船主(杰弗里·拉什 Geoffrey Rush 饰)联手出海寻觅。倔强狂妄的杰克决然拒绝,鬼使神差进入了假杰克船主的巢穴,更由此相逢了旧老情人安吉莉卡(佩妮洛普·克鲁兹 Penélope Cruz 饰)。各类身分促使迫使他加入了安吉莉卡的船队,更和她的父亲——污名昭著海盗“黑胡子”(伊恩·麦柯肖恩 Ian McShane 饰)搅在了一路。新的冒险就在这缭乱中展开,无数的危险和引诱等在大海的另一边……
◎获奖情况
  第39届动画安妮奖 ?(2012)
  最好真人电影动画结果(提名) 布兰科·格鲁契奇
  
  第13届美国青少年挑选奖 ?(2011)
  最好科幻/奇异电影(提名)
  最好科幻/奇异电影男演员(提名) 约翰尼·德普
  最好科幻/奇异电影女演员(提名) 佩内洛普·克鲁兹
  最好电影反派(提名) 伊恩·麦柯肖恩
  1. Video
  2. ID                                       : 1
  3. Format                                   : HEVC
  4. Format/Info                              : High Efficiency Video Coding
  5. Format profile                           : Main [email protected]@High
  6. Codec ID                                 : V_MPEGH/ISO/HEVC
  7. Duration                                 : 2 h 16 min
  8. Bit rate                                 : 20.4 Mb/s
  9. Width                                    : 3 840 pixels
  10. Height                                   : 1 600 pixels
  11. Display aspect ratio                     : 2.40:1
  12. Frame rate mode                          : Constant
  13. Frame rate                               : 23.976 (24000/1001/189150) FPS
  14. Color space                              : YUV
  15. Chroma subsampling                       : 4:2:0
  16. Bit depth                                : 10 bits
  17. Bits/(Pixel*Frame)                       : 0.138
  18. Stream size                              : 19.4 GiB (68%)
  19. Writing library                          : x265 3.0ed72af837053:[Windows][GCC 8.2.0][64 bit] 10bit
  20. Encoding settings                        : cpuid=1111039 / frame-threads=6 / numa-pools=40 / wpp / no-pmode / no-pme / no-psnr / no-ssim / log-level=2 / input-csp=1 / input-res=3840x1600 / interlace=0 / total-frames=196231 / level-idc=51 / high-tier=1 / uhd-bd=0 / ref=3 / no-allow-non-conformance / repeat-headers / annexb / aud / hrd / info / hash=0 / no-temporal-layers / no-open-gop / min-keyint=1 / keyint=24 / gop-lookahead=0 / bframes=4 / b-adapt=2 / b-pyramid / bframe-bias=0 / rc-lookahead=25 / lookahead-slices=4 / scenecut=40 / radl=0 / no-splice / no-intra-refresh / ctu=64 / min-cu-size=8 / no-rect / no-amp / max-tu-size=32 / tu-inter-depth=1 / tu-intra-depth=1 / limit-tu=0 / rdoq-level=0 / dynamic-rd=0.00 / no-ssim-rd / signhide / no-tskip / nr-intra=0 / nr-inter=0 / no-constrained-intra / strong-intra-smoothing / max-merge=2 / limit-refs=3 / no-limit-modes / me=1 / subme=2 / merange=57 / temporal-mvp / weightp / no-weightb / no-analyze-src-pics / deblock=0:0 / no-sao / no-sao-non-deblock / rd=3 / no-early-skip / rskip / no-fast-intra / no-tskip-fast / no-cu-lossless / no-b-intra / no-splitrd-skip / rdpenalty=0 / psy-rd=2.00 / psy-rdoq=0.00 / no-rd-refine / no-lossless / cbqpoffs=0 / crqpoffs=0 / rc=crf / crf=16.0 / qcomp=0.60 / qpstep=4 / stats-write=0 / stats-read=0 / vbv-maxrate=160000 / vbv-bufsize=160000 / vbv-init=0.9 / crf-max=0.0 / crf-min=0.0 / ipratio=1.40 / pbratio=1.30 / aq-mode=1 / aq-strength=1.00 / cutree / zone-count=0 / no-strict-cbr / qg-size=32 / no-rc-grain / qpmax=69 / qpmin=0 / no-const-vbv / sar=1 / overscan=0 / videoformat=5 / range=0 / colorprim=2 / transfer=2 / colormatrix=2 / chromaloc=0 / display-window=0 / max-cll=0,0 / min-luma=0 / max-luma=1023 / log2-max-poc-lsb=8 / vui-timing-info / vui-hrd-info / slices=1 / opt-qp-pps / opt-ref-list-length-pps / no-multi-pass-opt-rps / scenecut-bias=0.05 / no-opt-cu-delta-qp / no-aq-motion / no-hdr / no-hdr-opt / no-dhdr10-opt / no-idr-recovery-sei / analysis-reuse-level=5 / scale-factor=0 / refine-intra=0 / refine-inter=0 / refine-mv=0 / refine-ctu-distortion=0 / no-limit-sao / ctu-info=0 / no-lowpass-dct / refine-analysis-type=0 / copy-pic=1 / max-ausize-factor=1.0 / no-dynamic-refine / no-single-sei / no-hevc-aq / qp-adaptation-range=1.00
  21. Default                                  : Yes
  22. Forced                                   : No

  23. Audio #1
  24. ID                                       : 2
  25. ID in the original source medium         : 4352 (0x1100)
  26. Format                                   : MLP FBA 16-ch
  27. Format/Info                              : Meridian Lossless Packing FBA with 16-channel presentation
  28. Commercial name                          : Dolby TrueHD with Dolby Atmos
  29. Codec ID                                 : A_TRUEHD
  30. Duration                                 : 2 h 16 min
  31. Bit rate mode                            : Variable
  32. Bit rate                                 : 4 337 kb/s
  33. Maximum bit rate                         : 6 105 kb/s
  34. Channel(s)                               : 8 channels
  35. Channel layout                           : L R C LFE Ls Rs Lb Rb
  36. Sampling rate                            : 48.0 kHz
  37. Frame rate                               : 1 200.000 FPS (40 SPF)
  38. Bit depth                                : 24 bits
  39. Compression mode                         : Lossless
  40. Stream size                              : 4.13 GiB (14%)
  41. Title                                    : TrueHD 7.1 Atmos
  42. Language                                 : English
  43. Default                                  : Yes
  44. Forced                                   : No
  45. Original source medium                   : Blu-ray
  46. Number of dynamic objects                : 13
  47. Bed channel count                        : 1 channel
  48. Bed channel configuration                : LFE

  49. Audio #2
  50. ID                                       : 3
  51. Format                                   : DTS XLL
  52. Format/Info                              : Digital Theater Systems
  53. Commercial name                          : DTS-HD Master Audio
  54. Codec ID                                 : A_DTS
  55. Duration                                 : 2 h 16 min
  56. Bit rate mode                            : Variable
  57. Bit rate                                 : 4 582 kb/s
  58. Channel(s)                               : 8 channels
  59. Channel layout                           : C L R LFE Lb Rb Lss Rss
  60. Sampling rate                            : 48.0 kHz
  61. Frame rate                               : 93.750 FPS (512 SPF)
  62. Bit depth                                : 24 bits
  63. Compression mode                         : Lossless
  64. Stream size                              : 4.37 GiB (15%)
  65. Title                                    : DTS-HD MA 7.1
  66. Language                                 : English
  67. Default                                  : No
  68. Forced                                   : No

  69. Audio #3
  70. ID                                       : 4
  71. ID in the original source medium         : 4352 (0x1100)
  72. Format                                   : AC-3
  73. Format/Info                              : Audio Coding 3
  74. Commercial name                          : Dolby Digital
  75. Codec ID                                 : A_AC3
  76. Duration                                 : 2 h 16 min
  77. Bit rate mode                            : Constant
  78. Bit rate                                 : 640 kb/s
  79. Channel(s)                               : 6 channels
  80. Channel layout                           : L R C LFE Ls Rs
  81. Sampling rate                            : 48.0 kHz
  82. Frame rate                               : 31.250 FPS (1536 SPF)
  83. Compression mode                         : Lossy
  84. Stream size                              : 624 MiB (2%)
  85. Title                                    : DD 5.1
  86. Language                                 : English
  87. Service kind                             : Complete Main
  88. Default                                  : No
  89. Forced                                   : No
  90. Original source medium                   : Blu-ray

  91. Text #1
  92. ID                                       : 5
  93. Format                                   : UTF-8
  94. Codec ID                                 : S_TEXT/UTF8
  95. Codec ID/Info                            : UTF-8 Plain Text
  96. Duration                                 : 2 h 6 min
  97. Bit rate                                 : 46 b/s
  98. Count of elements                        : 1367
  99. Stream size                              : 43.3 KiB (0%)
  100. Language                                 : English
  101. Default                                  : Yes
  102. Forced                                   : No

  103. Text #2
  104. ID                                       : 6
  105. Format                                   : UTF-8
  106. Codec ID                                 : S_TEXT/UTF8
  107. Codec ID/Info                            : UTF-8 Plain Text
  108. Duration                                 : 2 h 15 min
  109. Bit rate                                 : 48 b/s
  110. Count of elements                        : 1628
  111. Stream size                              : 48.5 KiB (0%)
  112. Title                                    : SDH
  113. Language                                 : English
  114. Default                                  : No
  115. Forced                                   : No

  116. Text #3
  117. ID                                       : 7
  118. ID in the original source medium         : 4768 (0x12A0)
  119. Format                                   : PGS
  120. Muxing mode                              : zlib
  121. Codec ID                                 : S_HDMV/PGS
  122. Codec ID/Info                            : Picture based subtitle format used on BDs/HD-DVDs
  123. Duration                                 : 2 h 15 min
  124. Bit rate                                 : 34.1 kb/s
  125. Count of elements                        : 3278
  126. Stream size                              : 33.1 MiB (0%)
  127. Language                                 : English
  128. Default                                  : No
  129. Forced                                   : No
  130. Original source medium                   : Blu-ray

  131. Text #4
  132. ID                                       : 8
  133. ID in the original source medium         : 4769 (0x12A1)
  134. Format                                   : PGS
  135. Muxing mode                              : zlib
  136. Codec ID                                 : S_HDMV/PGS
  137. Codec ID/Info                            : Picture based subtitle format used on BDs/HD-DVDs
  138. Duration                                 : 2 h 6 min
  139. Bit rate                                 : 26.2 kb/s
  140. Count of elements                        : 2460
  141. Stream size                              : 23.8 MiB (0%)
  142. Language                                 : French
  143. Default                                  : No
  144. Forced                                   : No
  145. Original source medium                   : Blu-ray

  146. Text #5
  147. ID                                       : 9
  148. ID in the original source medium         : 4770 (0x12A2)
  149. Format                                   : PGS
  150. Muxing mode                              : zlib
  151. Codec ID                                 : S_HDMV/PGS
  152. Codec ID/Info                            : Picture based subtitle format used on BDs/HD-DVDs
  153. Duration                                 : 2 h 6 min
  154. Bit rate                                 : 26.2 kb/s
  155. Count of elements                        : 2464
  156. Stream size                              : 23.8 MiB (0%)
  157. Language                                 : French
  158. Default                                  : No
  159. Forced                                   : No
  160. Original source medium                   : Blu-ray

  161. Text #6
  162. ID                                       : 10
  163. ID in the original source medium         : 4771 (0x12A3)
  164. Format                                   : PGS
  165. Muxing mode                              : zlib
  166. Codec ID                                 : S_HDMV/PGS
  167. Codec ID/Info                            : Picture based subtitle format used on BDs/HD-DVDs
  168. Duration                                 : 2 h 6 min
  169. Bit rate                                 : 29.7 kb/s
  170. Count of elements                        : 2530
  171. Stream size                              : 26.9 MiB (0%)
  172. Language                                 : Spanish
  173. Default                                  : No
  174. Forced                                   : No
  175. Original source medium                   : Blu-ray

  176. Text #7
  177. ID                                       : 11
  178. ID in the original source medium         : 4772 (0x12A4)
  179. Format                                   : PGS
  180. Muxing mode                              : zlib
  181. Codec ID                                 : S_HDMV/PGS
  182. Codec ID/Info                            : Picture based subtitle format used on BDs/HD-DVDs
  183. Duration                                 : 2 h 14 min
  184. Bit rate                                 : 27.4 kb/s
  185. Count of elements                        : 2524
  186. Stream size                              : 26.3 MiB (0%)
  187. Language                                 : German
  188. Default                                  : No
  189. Forced                                   : No
  190. Original source medium                   : Blu-ray

  191. Text #8
  192. ID                                       : 12
  193. ID in the original source medium         : 4773 (0x12A5)
  194. Format                                   : PGS
  195. Muxing mode                              : zlib
  196. Codec ID                                 : S_HDMV/PGS
  197. Codec ID/Info                            : Picture based subtitle format used on BDs/HD-DVDs
  198. Duration                                 : 2 h 6 min
  199. Bit rate                                 : 22.1 kb/s
  200. Count of elements                        : 2562
  201. Stream size                              : 19.9 MiB (0%)
  202. Language                                 : Japanese
  203. Default                                  : No
  204. Forced                                   : No
  205. Original source medium                   : Blu-ray

  206. Text #9
  207. ID                                       : 13
  208. ID in the original source medium         : 4774 (0x12A6)
  209. Format                                   : PGS
  210. Muxing mode                              : zlib
  211. Codec ID                                 : S_HDMV/PGS
  212. Codec ID/Info                            : Picture based subtitle format used on BDs/HD-DVDs
  213. Duration                                 : 2 h 5 min
  214. Bit rate                                 : 29.8 kb/s
  215. Count of elements                        : 2572
  216. Stream size                              : 26.8 MiB (0%)
  217. Language                                 : Dutch
  218. Default                                  : No
  219. Forced                                   : No
  220. Original source medium                   : Blu-ray

  221. Text #10
  222. ID                                       : 14
  223. ID in the original source medium         : 4775 (0x12A7)
  224. Format                                   : PGS
  225. Muxing mode                              : zlib
  226. Codec ID                                 : S_HDMV/PGS
  227. Codec ID/Info                            : Picture based subtitle format used on BDs/HD-DVDs
  228. Duration                                 : 2 h 14 min
  229. Bit rate                                 : 28.3 kb/s
  230. Count of elements                        : 2544
  231. Stream size                              : 27.2 MiB (0%)
  232. Language                                 : Danish
  233. Default                                  : No
  234. Forced                                   : No
  235. Original source medium                   : Blu-ray

  236. Text #11
  237. ID                                       : 15
  238. ID in the original source medium         : 4776 (0x12A8)
  239. Format                                   : PGS
  240. Muxing mode                              : zlib
  241. Codec ID                                 : S_HDMV/PGS
  242. Codec ID/Info                            : Picture based subtitle format used on BDs/HD-DVDs
  243. Duration                                 : 2 h 6 min
  244. Bit rate                                 : 29.1 kb/s
  245. Count of elements                        : 2666
  246. Stream size                              : 26.4 MiB (0%)
  247. Language                                 : Finnish
  248. Default                                  : No
  249. Forced                                   : No
  250. Original source medium                   : Blu-ray

  251. Text #12
  252. ID                                       : 16
  253. ID in the original source medium         : 4777 (0x12A9)
  254. Format                                   : PGS
  255. Muxing mode                              : zlib
  256. Codec ID                                 : S_HDMV/PGS
  257. Codec ID/Info                            : Picture based subtitle format used on BDs/HD-DVDs
  258. Duration                                 : 2 h 5 min
  259. Bit rate                                 : 28.7 kb/s
  260. Count of elements                        : 2532
  261. Stream size                              : 25.8 MiB (0%)
  262. Language                                 : Norwegian
  263. Default                                  : No
  264. Forced                                   : No
  265. Original source medium                   : Blu-ray

  266. Text #13
  267. ID                                       : 17
  268. ID in the original source medium         : 4778 (0x12AA)
  269. Format                                   : PGS
  270. Muxing mode                              : zlib
  271. Codec ID                                 : S_HDMV/PGS
  272. Codec ID/Info                            : Picture based subtitle format used on BDs/HD-DVDs
  273. Duration                                 : 2 h 14 min
  274. Bit rate                                 : 26.1 kb/s
  275. Count of elements                        : 2510
  276. Stream size                              : 25.1 MiB (0%)
  277. Language                                 : Swedish
  278. Default                                  : No
  279. Forced                                   : No
  280. Original source medium                   : Blu-ray

  281. Menu
  282. 00:00:00.000                             : en:Chapter 01
  283. 00:03:34.172                             : en:Chapter 02
  284. 00:08:46.776                             : en:Chapter 03
  285. 00:15:58.582                             : en:Chapter 04
  286. 00:18:34.154                             : en:Chapter 05
  287. 00:21:15.148                             : en:Chapter 06
  288. 00:30:05.512                             : en:Chapter 07
  289. 00:36:56.756                             : en:Chapter 08
  290. 00:42:05.356                             : en:Chapter 09
  291. 00:48:19.813                             : en:Chapter 10
  292. 00:53:26.077                             : en:Chapter 11
  293. 00:55:42.881                             : en:Chapter 12
  294. 00:57:52.635                             : en:Chapter 13
  295. 01:00:47.143                             : en:Chapter 14
  296. 01:08:21.889                             : en:Chapter 15
  297. 01:11:41.338                             : en:Chapter 16
  298. 01:13:02.795                             : en:Chapter 17
  299. 01:14:16.743                             : en:Chapter 18
  300. 01:23:19.995                             : en:Chapter 19
  301. 01:26:49.704                             : en:Chapter 20
  302. 01:30:16.494                             : en:Chapter 21
  303. 01:35:43.696                             : en:Chapter 22
  304. 01:40:57.760                             : en:Chapter 23
  305. 01:43:07.556                             : en:Chapter 24
  306. 01:44:51.660                             : en:Chapter 25
  307. 01:48:53.610                             : en:Chapter 26
  308. 01:57:41.471                             : en:Chapter 27
  309. 02:02:21.375                             : en:Chapter 28
  310. 02:05:51.460                             : en:Chapter 29
  311. 02:07:26.597                             : en:Chapter 30
复制代码













                                       
                                       

                                       
                                       
                                       





回复

使用道具 举报

懒得打字嘛,点击右侧快捷回复 【右侧内容,后台自定义】
您需要登录后才可以回帖 登录 | 立即加入

本版积分规则

Archiver|小黑屋| 蓝光电影网 |网站地图

Copyright © 2021 Comsenz Inc. Powered by 蓝光电影网

蓝光电影网

本站内容由用户自主分享和转载自互联网,转载目的在于传递更多信息,并不代表本网赞同其观点和对其真实性负责。

如有侵权、违反国家法律政策行为,请联系我们,我们会第一时间及时清除和处理!

举报反馈邮箱:[email protected]

快速回复 返回顶部 返回列表