找回密码

蓝光电影网

查看: 106|回复: 1

[2160p] 加勒比海盗4:惊涛怪浪 Pirates.of.the.Caribbean.On.Stranger.Tides.2011.2160p.BluRay.x264.8bit.SDR.DTS-HD.MA.TrueHD.7.1.Atmos-SWTYBLZ 31.22GB

[复制链接]
蓝光币
730
发表于 2022-1-14 11:57:26 | 显示全部楼层 |阅读模式


◎译  名 加勒比海盗4:惊涛怪浪/Pirates 4/加勒比海盗 神鬼奇航:鬼魂海(台)/加勒比海盗:魔盗怒潮(港)/加勒比海盗4:陌生的潮汐
◎片  名 Pirates of the Caribbean: On Stranger Tides
◎年  代 2011
◎产  地 美国
◎类  别 行动 / 奇异 / 冒险
◎语  言 英语
◎上映日期 2011-05-20(美国/中国大陆)
◎豆瓣评分 7.8/10 from 332478 users
◎豆瓣链接 https://movie.douban.com/subject/3227410/
◎片  长 136分钟
◎导  演 罗伯·马歇尔 Rob Marshall
◎编  剧 泰德·艾略特 Ted Elliott / 特里·鲁西奥 Terry Rossio / 斯图尔特·贝亚蒂耶 Stuart Beattie / 杰·沃尔伯特 Jay Wolpert
◎主  演 约翰尼·德普 Johnny Depp
       佩内洛普·克鲁兹 Penélope Cruz
       杰弗里·拉什 Geoffrey Rush
       伊恩·麦柯肖恩 Ian McShane
       凯文·麦克纳利 Kevin McNally
       山姆·克拉弗林 Sam Claflin
       阿斯特丽德·伯格斯-弗瑞斯贝 àstrid Bergès-Frisbey
       斯蒂芬·格拉汉姆 Stephen Graham
       凯斯·理查德兹 Keith Richards
       理查德·格雷弗斯 Richard Griffiths
       格雷格·埃利斯 Greg Ellis
       达米恩·奥哈尔 Damian O'Hare
       奥斯卡·贾恩那达 óscar Jaenada
       安东·莱瑟 Anton Lesser
       罗杰·阿拉姆 Roger Allam
       朱迪·丹奇 Judi Dench
       克里斯托弗·法里班克 Christopher Fairbank
       保罗·巴泽利 Paul Bazely
       布隆森·韦伯 Bronson Webb
       理查德·汤姆森 Richard Thomson
       松崎悠希 Yuki Matsuzaki
       罗比·凯 Robbie Kay
       斯蒂夫·艾弗茨 Steve Evets
       Ian Mercer Ian Mercer
       道比·欧帕瑞 Deobia Oparei
       嘉玛·沃德 Gemma Ward
       塞巴斯蒂安·阿梅斯托 Sebastian Armesto
       胡安·卡洛斯·凡希多 Juan Carlos Vellido
       杰拉德·摩纳科 Gerard Monaco
       卢克·罗伯茨 Luke Roberts
       丹尼尔·英格斯 Daniel Ings
       艾米莉亚·琼斯 Emilia Jones
       帕特里克·肯尼迪 Patrick Kennedy
       Jody Halse Jody Halse
       克利福德·罗斯 Clifford Rose
       Sanya Hughes Sanya Hughes
       达芙妮 Daphne Joy
       安托瓦内特·尼普莱拉 Antoinette Nikprelaj
       德里克·梅耶斯 Derek Mears
       金塔雷·贝尼奥拉维特 Gintare Beinoraviciute
       贝恩·科拉科 Bern Colla?o
       埃利奥特·克罗斯利 Elliott Crossley
        Kit Farrell
       尼可拉·芬恩 Nichola Fynn
       鲍比·霍兰德·汉顿 Bobby Holland Hanton
        Harley Jay
       杰瑞米·金 Jeremy King
       特蕾莎·马奥尼 Teresa Mahoney
       让·皮埃尔·普拉茨 Jean Pierre Prats
       克里斯滕·史蒂芬森皮诺 Kristen StephensonPino
       哈维·沃尔什 Harvey Walsh
       陆建艺 Jianyi Lu
       季冠霖 Guanlin Ji
       金永钢 Yonggang Jin
◎简  介


  迪士尼《加勒比海盗4》豆瓣小站:http://site.douban.com/disneymovie/
  
  因故在伦敦盘桓时代,杰克·斯派罗船主(约翰尼·德普 Johnny Depp 饰)被英国国王的兵士捉住。本来传闻中的“不老泉”重现人间,为了赶在西班牙之前得手。英国国王乔治二世(Richard Griffiths 饰)希望杰克和巴波萨船主(杰弗里·拉什 Geoffrey Rush 饰)联手出海寻觅。倔强狂妄的杰克决然拒绝,鬼使神差进入了假杰克船主的巢穴,更由此相逢了旧老情人安吉莉卡(佩妮洛普·克鲁兹 Penélope Cruz 饰)。各类身分促使迫使他加入了安吉莉卡的船队,更和她的父亲——污名昭著海盗“黑胡子”(伊恩·麦柯肖恩 Ian McShane 饰)搅在了一路。新的冒险就在这缭乱中展开,无数的危险和引诱等在大海的另一边……
◎获奖情况
  第39届动画安妮奖 ?(2012)
  最好真人电影动画结果(提名) 布兰科·格鲁契奇
  
  第13届美国青少年挑选奖 ?(2011)
  最好科幻/奇异电影(提名)
  最好科幻/奇异电影男演员(提名) 约翰尼·德普
  最好科幻/奇异电影女演员(提名) 佩内洛普·克鲁兹
  最好电影反派(提名) 伊恩·麦柯肖恩
  1. Video
  2. ID                                       : 1
  3. Format                                   : AVC
  4. Format/Info                              : Advanced Video Codec
  5. Format profile                           : [email protected]
  6. Format settings                          : CABAC / 5 Ref Frames
  7. Format settings, CABAC                   : Yes
  8. Format settings, Reference frames        : 5 frames
  9. Codec ID                                 : V_MPEG4/ISO/AVC
  10. Duration                                 : 2 h 16 min
  11. Bit rate                                 : 22.9 Mb/s
  12. Width                                    : 3 840 pixels
  13. Height                                   : 1 600 pixels
  14. Display aspect ratio                     : 2.40:1
  15. Frame rate mode                          : Constant
  16. Frame rate                               : 23.976 (24000/1001/189150) FPS
  17. Color space                              : YUV
  18. Chroma subsampling                       : 4:2:0
  19. Bit depth                                : 8 bits
  20. Scan type                                : Progressive
  21. Bits/(Pixel*Frame)                       : 0.155
  22. Stream size                              : 21.8 GiB (70%)
  23. Writing library                          : x264 core 157 r2935 545de2f
  24. Encoding settings                        : cabac=1 / ref=5 / deblock=1:-1:-1 / analyse=0x3:0x113 / me=umh / subme=10 / psy=1 / psy_rd=1.00:0.15 / mixed_ref=1 / me_range=48 / chroma_me=1 / trellis=2 / 8x8dct=1 / cqm=0 / deadzone=21,11 / fast_pskip=1 / chroma_qp_offset=-3 / threads=48 / lookahead_threads=4 / sliced_threads=0 / nr=0 / decimate=0 / interlaced=0 / bluray_compat=0 / constrained_intra=0 / bframes=3 / b_pyramid=2 / b_adapt=2 / b_bias=0 / direct=3 / weightb=1 / open_gop=0 / weightp=2 / keyint=250 / keyint_min=23 / scenecut=40 / intra_refresh=0 / rc_lookahead=50 / rc=crf / mbtree=1 / crf=18.0 / qcomp=0.60 / qpmin=0 / qpmax=69 / qpstep=4 / ip_ratio=1.40 / aq=1:1.00
  25. Default                                  : Yes
  26. Forced                                   : No

  27. Audio #1
  28. ID                                       : 2
  29. ID in the original source medium         : 4352 (0x1100)
  30. Format                                   : MLP FBA 16-ch
  31. Format/Info                              : Meridian Lossless Packing FBA with 16-channel presentation
  32. Commercial name                          : Dolby TrueHD with Dolby Atmos
  33. Codec ID                                 : A_TRUEHD
  34. Duration                                 : 2 h 16 min
  35. Bit rate mode                            : Variable
  36. Bit rate                                 : 4 337 kb/s
  37. Maximum bit rate                         : 6 105 kb/s
  38. Channel(s)                               : 8 channels
  39. Channel layout                           : L R C LFE Ls Rs Lb Rb
  40. Sampling rate                            : 48.0 kHz
  41. Frame rate                               : 1 200.000 FPS (40 SPF)
  42. Bit depth                                : 24 bits
  43. Compression mode                         : Lossless
  44. Stream size                              : 4.13 GiB (13%)
  45. Title                                    : TrueHD 7.1 Atmos
  46. Language                                 : English
  47. Default                                  : Yes
  48. Forced                                   : No
  49. Original source medium                   : Blu-ray
  50. Number of dynamic objects                : 13
  51. Bed channel count                        : 1 channel
  52. Bed channel configuration                : LFE

  53. Audio #2
  54. ID                                       : 3
  55. Format                                   : DTS XLL
  56. Format/Info                              : Digital Theater Systems
  57. Commercial name                          : DTS-HD Master Audio
  58. Codec ID                                 : A_DTS
  59. Duration                                 : 2 h 16 min
  60. Bit rate mode                            : Variable
  61. Bit rate                                 : 4 582 kb/s
  62. Channel(s)                               : 8 channels
  63. Channel layout                           : C L R LFE Lb Rb Lss Rss
  64. Sampling rate                            : 48.0 kHz
  65. Frame rate                               : 93.750 FPS (512 SPF)
  66. Bit depth                                : 24 bits
  67. Compression mode                         : Lossless
  68. Stream size                              : 4.37 GiB (14%)
  69. Title                                    : DTS-HD MA 7.1
  70. Language                                 : English
  71. Default                                  : No
  72. Forced                                   : No

  73. Audio #3
  74. ID                                       : 4
  75. ID in the original source medium         : 4352 (0x1100)
  76. Format                                   : AC-3
  77. Format/Info                              : Audio Coding 3
  78. Commercial name                          : Dolby Digital
  79. Codec ID                                 : A_AC3
  80. Duration                                 : 2 h 16 min
  81. Bit rate mode                            : Constant
  82. Bit rate                                 : 640 kb/s
  83. Channel(s)                               : 6 channels
  84. Channel layout                           : L R C LFE Ls Rs
  85. Sampling rate                            : 48.0 kHz
  86. Frame rate                               : 31.250 FPS (1536 SPF)
  87. Compression mode                         : Lossy
  88. Stream size                              : 624 MiB (2%)
  89. Title                                    : DD 5.1
  90. Language                                 : English
  91. Service kind                             : Complete Main
  92. Default                                  : No
  93. Forced                                   : No
  94. Original source medium                   : Blu-ray

  95. Text #1
  96. ID                                       : 5
  97. Format                                   : UTF-8
  98. Codec ID                                 : S_TEXT/UTF8
  99. Codec ID/Info                            : UTF-8 Plain Text
  100. Duration                                 : 2 h 6 min
  101. Bit rate                                 : 46 b/s
  102. Count of elements                        : 1367
  103. Stream size                              : 43.3 KiB (0%)
  104. Language                                 : English
  105. Default                                  : Yes
  106. Forced                                   : No

  107. Text #2
  108. ID                                       : 6
  109. Format                                   : UTF-8
  110. Codec ID                                 : S_TEXT/UTF8
  111. Codec ID/Info                            : UTF-8 Plain Text
  112. Duration                                 : 2 h 15 min
  113. Bit rate                                 : 48 b/s
  114. Count of elements                        : 1628
  115. Stream size                              : 48.5 KiB (0%)
  116. Title                                    : SDH
  117. Language                                 : English
  118. Default                                  : No
  119. Forced                                   : No

  120. Text #3
  121. ID                                       : 7
  122. ID in the original source medium         : 4768 (0x12A0)
  123. Format                                   : PGS
  124. Muxing mode                              : zlib
  125. Codec ID                                 : S_HDMV/PGS
  126. Codec ID/Info                            : Picture based subtitle format used on BDs/HD-DVDs
  127. Duration                                 : 2 h 15 min
  128. Bit rate                                 : 34.1 kb/s
  129. Count of elements                        : 3278
  130. Stream size                              : 33.1 MiB (0%)
  131. Language                                 : English
  132. Default                                  : No
  133. Forced                                   : No
  134. Original source medium                   : Blu-ray

  135. Text #4
  136. ID                                       : 8
  137. ID in the original source medium         : 4769 (0x12A1)
  138. Format                                   : PGS
  139. Muxing mode                              : zlib
  140. Codec ID                                 : S_HDMV/PGS
  141. Codec ID/Info                            : Picture based subtitle format used on BDs/HD-DVDs
  142. Duration                                 : 2 h 6 min
  143. Bit rate                                 : 26.2 kb/s
  144. Count of elements                        : 2460
  145. Stream size                              : 23.8 MiB (0%)
  146. Language                                 : French
  147. Default                                  : No
  148. Forced                                   : No
  149. Original source medium                   : Blu-ray

  150. Text #5
  151. ID                                       : 9
  152. ID in the original source medium         : 4770 (0x12A2)
  153. Format                                   : PGS
  154. Muxing mode                              : zlib
  155. Codec ID                                 : S_HDMV/PGS
  156. Codec ID/Info                            : Picture based subtitle format used on BDs/HD-DVDs
  157. Duration                                 : 2 h 6 min
  158. Bit rate                                 : 26.2 kb/s
  159. Count of elements                        : 2464
  160. Stream size                              : 23.8 MiB (0%)
  161. Language                                 : French
  162. Default                                  : No
  163. Forced                                   : No
  164. Original source medium                   : Blu-ray

  165. Text #6
  166. ID                                       : 10
  167. ID in the original source medium         : 4771 (0x12A3)
  168. Format                                   : PGS
  169. Muxing mode                              : zlib
  170. Codec ID                                 : S_HDMV/PGS
  171. Codec ID/Info                            : Picture based subtitle format used on BDs/HD-DVDs
  172. Duration                                 : 2 h 6 min
  173. Bit rate                                 : 29.7 kb/s
  174. Count of elements                        : 2530
  175. Stream size                              : 26.9 MiB (0%)
  176. Language                                 : Spanish
  177. Default                                  : No
  178. Forced                                   : No
  179. Original source medium                   : Blu-ray

  180. Text #7
  181. ID                                       : 11
  182. ID in the original source medium         : 4772 (0x12A4)
  183. Format                                   : PGS
  184. Muxing mode                              : zlib
  185. Codec ID                                 : S_HDMV/PGS
  186. Codec ID/Info                            : Picture based subtitle format used on BDs/HD-DVDs
  187. Duration                                 : 2 h 14 min
  188. Bit rate                                 : 27.4 kb/s
  189. Count of elements                        : 2524
  190. Stream size                              : 26.3 MiB (0%)
  191. Language                                 : German
  192. Default                                  : No
  193. Forced                                   : No
  194. Original source medium                   : Blu-ray

  195. Text #8
  196. ID                                       : 12
  197. ID in the original source medium         : 4773 (0x12A5)
  198. Format                                   : PGS
  199. Muxing mode                              : zlib
  200. Codec ID                                 : S_HDMV/PGS
  201. Codec ID/Info                            : Picture based subtitle format used on BDs/HD-DVDs
  202. Duration                                 : 2 h 6 min
  203. Bit rate                                 : 22.1 kb/s
  204. Count of elements                        : 2562
  205. Stream size                              : 19.9 MiB (0%)
  206. Language                                 : Japanese
  207. Default                                  : No
  208. Forced                                   : No
  209. Original source medium                   : Blu-ray

  210. Text #9
  211. ID                                       : 13
  212. ID in the original source medium         : 4774 (0x12A6)
  213. Format                                   : PGS
  214. Muxing mode                              : zlib
  215. Codec ID                                 : S_HDMV/PGS
  216. Codec ID/Info                            : Picture based subtitle format used on BDs/HD-DVDs
  217. Duration                                 : 2 h 5 min
  218. Bit rate                                 : 29.8 kb/s
  219. Count of elements                        : 2572
  220. Stream size                              : 26.8 MiB (0%)
  221. Language                                 : Dutch
  222. Default                                  : No
  223. Forced                                   : No
  224. Original source medium                   : Blu-ray

  225. Text #10
  226. ID                                       : 14
  227. ID in the original source medium         : 4775 (0x12A7)
  228. Format                                   : PGS
  229. Muxing mode                              : zlib
  230. Codec ID                                 : S_HDMV/PGS
  231. Codec ID/Info                            : Picture based subtitle format used on BDs/HD-DVDs
  232. Duration                                 : 2 h 14 min
  233. Bit rate                                 : 28.3 kb/s
  234. Count of elements                        : 2544
  235. Stream size                              : 27.2 MiB (0%)
  236. Language                                 : Danish
  237. Default                                  : No
  238. Forced                                   : No
  239. Original source medium                   : Blu-ray

  240. Text #11
  241. ID                                       : 15
  242. ID in the original source medium         : 4776 (0x12A8)
  243. Format                                   : PGS
  244. Muxing mode                              : zlib
  245. Codec ID                                 : S_HDMV/PGS
  246. Codec ID/Info                            : Picture based subtitle format used on BDs/HD-DVDs
  247. Duration                                 : 2 h 6 min
  248. Bit rate                                 : 29.1 kb/s
  249. Count of elements                        : 2666
  250. Stream size                              : 26.4 MiB (0%)
  251. Language                                 : Finnish
  252. Default                                  : No
  253. Forced                                   : No
  254. Original source medium                   : Blu-ray

  255. Text #12
  256. ID                                       : 16
  257. ID in the original source medium         : 4777 (0x12A9)
  258. Format                                   : PGS
  259. Muxing mode                              : zlib
  260. Codec ID                                 : S_HDMV/PGS
  261. Codec ID/Info                            : Picture based subtitle format used on BDs/HD-DVDs
  262. Duration                                 : 2 h 5 min
  263. Bit rate                                 : 28.7 kb/s
  264. Count of elements                        : 2532
  265. Stream size                              : 25.8 MiB (0%)
  266. Language                                 : Norwegian
  267. Default                                  : No
  268. Forced                                   : No
  269. Original source medium                   : Blu-ray

  270. Text #13
  271. ID                                       : 17
  272. ID in the original source medium         : 4778 (0x12AA)
  273. Format                                   : PGS
  274. Muxing mode                              : zlib
  275. Codec ID                                 : S_HDMV/PGS
  276. Codec ID/Info                            : Picture based subtitle format used on BDs/HD-DVDs
  277. Duration                                 : 2 h 14 min
  278. Bit rate                                 : 26.1 kb/s
  279. Count of elements                        : 2510
  280. Stream size                              : 25.1 MiB (0%)
  281. Language                                 : Swedish
  282. Default                                  : No
  283. Forced                                   : No
  284. Original source medium                   : Blu-ray

  285. Menu
  286. 00:00:00.000                             : en:Chapter 01
  287. 00:03:34.172                             : en:Chapter 02
  288. 00:08:46.776                             : en:Chapter 03
  289. 00:15:58.582                             : en:Chapter 04
  290. 00:18:34.154                             : en:Chapter 05
  291. 00:21:15.148                             : en:Chapter 06
  292. 00:30:05.512                             : en:Chapter 07
  293. 00:36:56.756                             : en:Chapter 08
  294. 00:42:05.356                             : en:Chapter 09
  295. 00:48:19.813                             : en:Chapter 10
  296. 00:53:26.077                             : en:Chapter 11
  297. 00:55:42.881                             : en:Chapter 12
  298. 00:57:52.635                             : en:Chapter 13
  299. 01:00:47.143                             : en:Chapter 14
  300. 01:08:21.889                             : en:Chapter 15
  301. 01:11:41.338                             : en:Chapter 16
  302. 01:13:02.795                             : en:Chapter 17
  303. 01:14:16.743                             : en:Chapter 18
  304. 01:23:19.995                             : en:Chapter 19
  305. 01:26:49.704                             : en:Chapter 20
  306. 01:30:16.494                             : en:Chapter 21
  307. 01:35:43.696                             : en:Chapter 22
  308. 01:40:57.760                             : en:Chapter 23
  309. 01:43:07.556                             : en:Chapter 24
  310. 01:44:51.660                             : en:Chapter 25
  311. 01:48:53.610                             : en:Chapter 26
  312. 01:57:41.471                             : en:Chapter 27
  313. 02:02:21.375                             : en:Chapter 28
  314. 02:05:51.460                             : en:Chapter 29
  315. 02:07:26.597                             : en:Chapter 30
复制代码













                                       
                                       

                                       
                                       
                                       





回复

使用道具 举报

蓝光币
2
发表于 2022-1-14 12:52:04 | 显示全部楼层
楼主发贴辛苦了,谢谢楼主分享!我觉得蓝光电影网是注册对了!
回复 支持 反对

使用道具 举报

懒得打字嘛,点击右侧快捷回复 【右侧内容,后台自定义】
您需要登录后才可以回帖 登录 | 立即加入

本版积分规则

Archiver|小黑屋| 蓝光电影网 |网站地图

Copyright © 2021 Comsenz Inc. Powered by 蓝光电影网

蓝光电影网

本站内容由用户自主分享和转载自互联网,转载目的在于传递更多信息,并不代表本网赞同其观点和对其真实性负责。

如有侵权、违反国家法律政策行为,请联系我们,我们会第一时间及时清除和处理!

举报反馈邮箱:[email protected]

快速回复 返回顶部 返回列表