找回密码

蓝光电影网

查看: 83|回复: 0

[2160p] 加勒比海盗2:聚魂棺 Pirates.of.the.Caribbean.Dead.Mans.Chest.2006.2160p.BluRay.x264.8bit.SDR.DTS-HD.MA.TrueHD.7.1.Atmos-SWTYBLZ 47.15GB

[复制链接]
蓝光币
730
发表于 2022-1-14 13:26:22 | 显示全部楼层 |阅读模式


◎译  名 加勒比海盗2:聚魂棺/Pirates 2/加勒比海盗:神鬼奇航2(台)/加勒比海盗2:亡灵宝藏/加勒比海盜:决战魔盜王(港)
◎片  名 Pirates of the Caribbean: Dead Man's Chest
◎年  代 2006
◎产  地 美国
◎类  别 行动 / 奇异 / 冒险
◎语  言 英语,土耳其语,希腊语
◎上映日期 2006-07-07(美国)
◎豆瓣评分 8.4/10 from 372106 users
◎豆瓣链接 https://movie.douban.com/subject/1315574/
◎片  长 151分钟
◎导  演 戈尔·维宾斯基 Gore Verbinski
◎编  剧 泰德·艾略特 Ted Elliott / 特里·鲁西奥 Terry Rossio / 斯图尔特·贝亚蒂耶 Stuart Beattie / 杰·沃尔伯特 Jay Wolpert
◎主  演 约翰尼·德普 Johnny Depp
       奥兰多·布鲁姆 Orlando Bloom
       凯拉·奈特莉 Keira Knightley
       杰克·达文波特 Jack Davenport
       比尔·奈伊 Bill Nighy
       乔纳森·普雷斯 Jonathan Pryce
       李·阿伦伯格 Lee Arenberg
       麦肯锡·克鲁克 Mackenzie Crook
       凯文·麦克纳利 Kevin McNally
       大卫·拜利 David Bailie
       斯特兰·斯卡斯加德 Stellan Skarsg?rd
       汤姆·霍兰德 Tom Hollander
       娜奥米·哈里斯 Naomie Harris
       马丁·科勒巴 Martin Klebba
       大卫·斯科菲尔德 David Schofield
       亚力克斯·诺顿 Alex Norton
       劳伦·马赫 Lauren Maher
       内杰·亚当森 Nej Adamson
       卢克·德·沃夫松 Luke de Woolfson
       德里克·奥康纳 Derrick O'Connor
       德莫特·基尼 Dermot Keaney
       克里夫·阿什伯恩 Clive Ashborn
       罗比·基 Robbie Gee
       麦克斯·贝克 Max Baker
       史蒂夫·斯皮尔斯 Steve Speirs
       约翰·博斯沃尔 John Boswall
       克里斯托弗·亚当森 Christopher Adamson
       安迪·比克维奇 Andy Beckwith
       乔纳森·林斯利 Jonathan Linsley
       西蒙·米考克 Simon Meacock
       瓦妮莎·布兰奇 Vanessa Branch
       大卫·斯特恩 David Sterne
       安东尼·帕特里西奥 Anthony Patricio
       迈克尔·恩莱特 Michael Enright
       马克·可汗 Marco Khan
       大卫·扎赫迪安 David Zahedian
       法乌齐·卜拉希米 Faouzi Brahimi
       雷吉·李 Reggie Lee
       杰拉德·J·雷耶斯 Gerard J. Reyes
       哈亚提·阿克巴斯 Hayati Akbas
       斯蒂芬·阿纳尼茨 Stephen Ananicz
       拉斯蒂·格瑞斯登·博林 Rusty 'Gravestone' Bolin
       罗恩·博蒂塔 Ron Bottitta
       盖伊·查普曼 Guy Chapman
       尼尔·德蒙特 Neil D'Monte
       杰拉德·加纳 Jerald Garner
       赛米·汉拉缇 Sammi Hanratty
       达隆·亨廷顿 Dalon Huntington
       保罗·雅各布森 Paul Jacobson
       马克·约瑟夫 Marc Joseph
       乔纳森·克特 Jonathan Kite
       杰弗里·拉什 Geoffrey Rush
       金永钢 Yonggang Jin
       陆建艺 Jianyi Lu
       谢鹤群 Ho-Kwan Tse
       亚历山大苏恩佐夫 Aleksandr Sountsov
       约瑟夫·史蒂文 Joseph Steven
       尼基·泰勒·梅尔顿 Nikki Taylor Melton
       卡莉·罗森博格 Karly Rothenberg
       玛姬·蒙罗 Maggie Munro
       安·马修斯 Ann Matthews
       艾琳·沙基 Erin Sharkey
       迈克尔·博诺莫 Michael Buonomo
       马克·约瑟夫 Marc Joseph
       迈克尔·A·莱文 Michael A. Levine
       尼古拉斯·里德 Nicolas Read
       詹姆斯·S·莱文 James S. Levine
◎简  介


  诱人的杰克(约翰尼?戴普 饰)船主又返来了,此次,他碰到了更增强大的仇敌——传闻中的不死人大卫?琼斯(比尔?奈伊 饰),他驾驶着让人恐惧的“飞翔荷兰人”号快船,在速度与装备上,没有任何船可以超越它。杰克船主欠下琼斯一个血债,他必须赶在最初时限到来之前,找到破解的方式,否则他会永久背负血债,而且在余生永久成为琼斯的仆从。
  
  固然,杰克船主的好朋友威尔?特纳(奥兰多?布鲁姆 饰)也被卷入了他的坏命运傍边。由于杰克,威尔和伊丽莎白(凯拉?奈特莉 饰)的婚礼被迫取消,伊丽莎白还被关进了牢狱,威尔为了救她,只能去寻觅杰克。
  
  此次两个好朋友碰到了庞大奥秘的陆地怪物、不和睦的小岛土著、打扮富丽的占卜者戴尔玛,威尔失散多年的父亲--“拉靴带”比尔?特纳(斯特兰?斯卡斯加德)在关键时辰古怪现身,成为全局的转折点……
◎获奖情况
  第79届奥斯卡金像奖 ?(2007)
  最好视觉结果 约翰·诺尔?/?哈尔·T·希克尔?/?查尔斯·吉布森?/?艾伦·霍尔
  最好混音(提名) 保罗·马瑟?/?克里斯托弗·博伊斯?/?李·奥尔洛夫
  最好音效剪辑(提名) 乔治·沃特斯二世?/?克里斯托弗·博伊斯
  最好艺术指导(提名) 谢丽尔·卡拉西克?/?瑞克·海因里希斯
  
  第64届金球奖 ?(2007)
  电影类音乐/笑剧片最好男配角(提名) 约翰尼·德普
  
  第30届日本电影学院奖 ?(2007)
  最好外语片(提名)
  
  第16届MTV电影奖 ?(2007)
  MTV电影奖年度电影
  MTV电影奖最好表演 约翰尼·德普
  MTV电影奖最好表演(提名) 凯拉·奈特莉
  MTV电影奖最好反派(提名) 比尔·奈伊
  1. Video
  2. ID                                       : 1
  3. Format                                   : AVC
  4. Format/Info                              : Advanced Video Codec
  5. Format profile                           : [email protected]
  6. Format settings                          : CABAC / 5 Ref Frames
  7. Format settings, CABAC                   : Yes
  8. Format settings, Reference frames        : 5 frames
  9. Codec ID                                 : V_MPEG4/ISO/AVC
  10. Duration                                 : 2 h 30 min
  11. Bit rate                                 : 35.3 Mb/s
  12. Width                                    : 3 840 pixels
  13. Height                                   : 1 600 pixels
  14. Display aspect ratio                     : 2.40:1
  15. Frame rate mode                          : Constant
  16. Frame rate                               : 23.976 (24000/1001/189150) FPS
  17. Color space                              : YUV
  18. Chroma subsampling                       : 4:2:0
  19. Bit depth                                : 8 bits
  20. Scan type                                : Progressive
  21. Bits/(Pixel*Frame)                       : 0.240
  22. Stream size                              : 37.2 GiB (79%)
  23. Writing library                          : x264 core 157 r2935 545de2f
  24. Encoding settings                        : cabac=1 / ref=5 / deblock=1:-1:-1 / analyse=0x3:0x113 / me=umh / subme=10 / psy=1 / psy_rd=1.00:0.15 / mixed_ref=1 / me_range=48 / chroma_me=1 / trellis=2 / 8x8dct=1 / cqm=0 / deadzone=21,11 / fast_pskip=1 / chroma_qp_offset=-3 / threads=48 / lookahead_threads=4 / sliced_threads=0 / nr=0 / decimate=0 / interlaced=0 / bluray_compat=0 / constrained_intra=0 / bframes=3 / b_pyramid=2 / b_adapt=2 / b_bias=0 / direct=3 / weightb=1 / open_gop=0 / weightp=2 / keyint=250 / keyint_min=23 / scenecut=40 / intra_refresh=0 / rc_lookahead=50 / rc=crf / mbtree=1 / crf=18.0 / qcomp=0.60 / qpmin=0 / qpmax=69 / qpstep=4 / ip_ratio=1.40 / aq=1:1.00
  25. Default                                  : Yes
  26. Forced                                   : No
  27. Audio #1
  28. ID                                       : 2
  29. ID in the original source medium         : 4352 (0x1100)
  30. Format                                   : MLP FBA 16-ch
  31. Format/Info                              : Meridian Lossless Packing FBA with 16-channel presentation
  32. Commercial name                          : Dolby TrueHD with Dolby Atmos
  33. Codec ID                                 : A_TRUEHD
  34. Duration                                 : 2 h 30 min
  35. Bit rate mode                            : Variable
  36. Bit rate                                 : 4 178 kb/s
  37. Maximum bit rate                         : 6 009 kb/s
  38. Channel(s)                               : 8 channels
  39. Channel layout                           : L R C LFE Ls Rs Lb Rb
  40. Sampling rate                            : 48.0 kHz
  41. Frame rate                               : 1 200.000 FPS (40 SPF)
  42. Bit depth                                : 24 bits
  43. Compression mode                         : Lossless
  44. Stream size                              : 4.40 GiB (9%)
  45. Title                                    : TrueHD 7.1 Atmos
  46. Language                                 : English
  47. Default                                  : Yes
  48. Forced                                   : No
  49. Original source medium                   : Blu-ray
  50. Number of dynamic objects                : 13
  51. Bed channel count                        : 1 channel
  52. Bed channel configuration                : LFE
  53. Audio #2
  54. ID                                       : 3
  55. Format                                   : DTS XLL
  56. Format/Info                              : Digital Theater Systems
  57. Commercial name                          : DTS-HD Master Audio
  58. Codec ID                                 : A_DTS
  59. Duration                                 : 2 h 30 min
  60. Bit rate mode                            : Variable
  61. Bit rate                                 : 4 403 kb/s
  62. Channel(s)                               : 8 channels
  63. Channel layout                           : C L R LFE Lb Rb Lss Rss
  64. Sampling rate                            : 48.0 kHz
  65. Frame rate                               : 93.750 FPS (512 SPF)
  66. Bit depth                                : 24 bits
  67. Compression mode                         : Lossless
  68. Stream size                              : 4.63 GiB (10%)
  69. Title                                    : DTS-HD MA 7.1
  70. Language                                 : English
  71. Default                                  : No
  72. Forced                                   : No
  73. Audio #3
  74. ID                                       : 4
  75. ID in the original source medium         : 4352 (0x1100)
  76. Format                                   : AC-3
  77. Format/Info                              : Audio Coding 3
  78. Commercial name                          : Dolby Digital
  79. Codec ID                                 : A_AC3
  80. Duration                                 : 2 h 30 min
  81. Bit rate mode                            : Constant
  82. Bit rate                                 : 640 kb/s
  83. Channel(s)                               : 6 channels
  84. Channel layout                           : L R C LFE Ls Rs
  85. Sampling rate                            : 48.0 kHz
  86. Frame rate                               : 31.250 FPS (1536 SPF)
  87. Compression mode                         : Lossy
  88. Stream size                              : 690 MiB (1%)
  89. Title                                    : DD 5.1
  90. Language                                 : English
  91. Service kind                             : Complete Main
  92. Default                                  : No
  93. Forced                                   : No
  94. Original source medium                   : Blu-ray
  95. Text #1
  96. ID                                       : 5
  97. Format                                   : UTF-8
  98. Codec ID                                 : S_TEXT/UTF8
  99. Codec ID/Info                            : UTF-8 Plain Text
  100. Duration                                 : 2 h 18 min
  101. Bit rate                                 : 41 b/s
  102. Count of elements                        : 1418
  103. Stream size                              : 41.7 KiB (0%)
  104. Language                                 : English
  105. Default                                  : Yes
  106. Forced                                   : No
  107. Text #2
  108. ID                                       : 6
  109. Format                                   : UTF-8
  110. Codec ID                                 : S_TEXT/UTF8
  111. Codec ID/Info                            : UTF-8 Plain Text
  112. Duration                                 : 2 h 27 min
  113. Bit rate                                 : 41 b/s
  114. Count of elements                        : 1566
  115. Stream size                              : 44.4 KiB (0%)
  116. Title                                    : SDH
  117. Language                                 : English
  118. Default                                  : No
  119. Forced                                   : No
  120. Text #3
  121. ID                                       : 7
  122. ID in the original source medium         : 4768 (0x12A0)
  123. Format                                   : PGS
  124. Muxing mode                              : zlib
  125. Codec ID                                 : S_HDMV/PGS
  126. Codec ID/Info                            : Picture based subtitle format used on BDs/HD-DVDs
  127. Duration                                 : 2 h 27 min
  128. Bit rate                                 : 28.8 kb/s
  129. Count of elements                        : 3182
  130. Stream size                              : 30.5 MiB (0%)
  131. Language                                 : English
  132. Default                                  : No
  133. Forced                                   : No
  134. Original source medium                   : Blu-ray
  135. Text #4
  136. ID                                       : 8
  137. ID in the original source medium         : 4769 (0x12A1)
  138. Format                                   : PGS
  139. Muxing mode                              : zlib
  140. Codec ID                                 : S_HDMV/PGS
  141. Codec ID/Info                            : Picture based subtitle format used on BDs/HD-DVDs
  142. Duration                                 : 2 h 20 min
  143. Bit rate                                 : 22.3 kb/s
  144. Count of elements                        : 2320
  145. Stream size                              : 22.3 MiB (0%)
  146. Language                                 : French
  147. Default                                  : No
  148. Forced                                   : No
  149. Original source medium                   : Blu-ray
  150. Text #5
  151. ID                                       : 9
  152. ID in the original source medium         : 4770 (0x12A2)
  153. Format                                   : PGS
  154. Muxing mode                              : zlib
  155. Codec ID                                 : S_HDMV/PGS
  156. Codec ID/Info                            : Picture based subtitle format used on BDs/HD-DVDs
  157. Duration                                 : 2 h 20 min
  158. Bit rate                                 : 22.4 kb/s
  159. Count of elements                        : 2518
  160. Stream size                              : 22.4 MiB (0%)
  161. Language                                 : French
  162. Default                                  : No
  163. Forced                                   : No
  164. Original source medium                   : Blu-ray
  165. Text #6
  166. ID                                       : 10
  167. ID in the original source medium         : 4771 (0x12A3)
  168. Format                                   : PGS
  169. Muxing mode                              : zlib
  170. Codec ID                                 : S_HDMV/PGS
  171. Codec ID/Info                            : Picture based subtitle format used on BDs/HD-DVDs
  172. Duration                                 : 2 h 20 min
  173. Bit rate                                 : 26.1 kb/s
  174. Count of elements                        : 2286
  175. Stream size                              : 26.2 MiB (0%)
  176. Language                                 : Spanish
  177. Default                                  : No
  178. Forced                                   : No
  179. Original source medium                   : Blu-ray
  180. Text #7
  181. ID                                       : 11
  182. ID in the original source medium         : 4772 (0x12A4)
  183. Format                                   : PGS
  184. Muxing mode                              : zlib
  185. Codec ID                                 : S_HDMV/PGS
  186. Codec ID/Info                            : Picture based subtitle format used on BDs/HD-DVDs
  187. Duration                                 : 2 h 19 min
  188. Bit rate                                 : 25.9 kb/s
  189. Count of elements                        : 2282
  190. Stream size                              : 25.9 MiB (0%)
  191. Language                                 : German
  192. Default                                  : No
  193. Forced                                   : No
  194. Original source medium                   : Blu-ray
  195. Text #8
  196. ID                                       : 12
  197. ID in the original source medium         : 4773 (0x12A5)
  198. Format                                   : PGS
  199. Muxing mode                              : zlib
  200. Codec ID                                 : S_HDMV/PGS
  201. Codec ID/Info                            : Picture based subtitle format used on BDs/HD-DVDs
  202. Duration                                 : 2 h 19 min
  203. Bit rate                                 : 20.5 kb/s
  204. Count of elements                        : 2686
  205. Stream size                              : 20.4 MiB (0%)
  206. Language                                 : Japanese
  207. Default                                  : No
  208. Forced                                   : No
  209. Original source medium                   : Blu-ray
  210. Text #9
  211. ID                                       : 13
  212. ID in the original source medium         : 4774 (0x12A6)
  213. Format                                   : PGS
  214. Muxing mode                              : zlib
  215. Codec ID                                 : S_HDMV/PGS
  216. Codec ID/Info                            : Picture based subtitle format used on BDs/HD-DVDs
  217. Duration                                 : 2 h 28 min
  218. Bit rate                                 : 21.4 kb/s
  219. Count of elements                        : 2414
  220. Stream size                              : 22.7 MiB (0%)
  221. Language                                 : Dutch
  222. Default                                  : No
  223. Forced                                   : No
  224. Original source medium                   : Blu-ray
  225. Text #10
  226. ID                                       : 14
  227. ID in the original source medium         : 4775 (0x12A7)
  228. Format                                   : PGS
  229. Muxing mode                              : zlib
  230. Codec ID                                 : S_HDMV/PGS
  231. Codec ID/Info                            : Picture based subtitle format used on BDs/HD-DVDs
  232. Duration                                 : 2 h 19 min
  233. Bit rate                                 : 25.1 kb/s
  234. Count of elements                        : 2280
  235. Stream size                              : 25.1 MiB (0%)
  236. Language                                 : Danish
  237. Default                                  : No
  238. Forced                                   : No
  239. Original source medium                   : Blu-ray
  240. Text #11
  241. ID                                       : 15
  242. ID in the original source medium         : 4776 (0x12A8)
  243. Format                                   : PGS
  244. Muxing mode                              : zlib
  245. Codec ID                                 : S_HDMV/PGS
  246. Codec ID/Info                            : Picture based subtitle format used on BDs/HD-DVDs
  247. Duration                                 : 2 h 19 min
  248. Bit rate                                 : 26.1 kb/s
  249. Count of elements                        : 2278
  250. Stream size                              : 26.2 MiB (0%)
  251. Language                                 : Finnish
  252. Default                                  : No
  253. Forced                                   : No
  254. Original source medium                   : Blu-ray
  255. Text #12
  256. ID                                       : 16
  257. ID in the original source medium         : 4777 (0x12A9)
  258. Format                                   : PGS
  259. Muxing mode                              : zlib
  260. Codec ID                                 : S_HDMV/PGS
  261. Codec ID/Info                            : Picture based subtitle format used on BDs/HD-DVDs
  262. Duration                                 : 2 h 18 min
  263. Bit rate                                 : 22.5 kb/s
  264. Count of elements                        : 2268
  265. Stream size                              : 22.4 MiB (0%)
  266. Language                                 : Norwegian
  267. Default                                  : No
  268. Forced                                   : No
  269. Original source medium                   : Blu-ray
  270. Text #13
  271. ID                                       : 17
  272. ID in the original source medium         : 4778 (0x12AA)
  273. Format                                   : PGS
  274. Muxing mode                              : zlib
  275. Codec ID                                 : S_HDMV/PGS
  276. Codec ID/Info                            : Picture based subtitle format used on BDs/HD-DVDs
  277. Duration                                 : 2 h 29 min
  278. Bit rate                                 : 21.6 kb/s
  279. Count of elements                        : 1880
  280. Stream size                              : 23.1 MiB (0%)
  281. Language                                 : Swedish
  282. Default                                  : No
  283. Forced                                   : No
  284. Original source medium                   : Blu-ray
  285. Menu
  286. 00:00:00.000                             : en:Chapter 01
  287. 00:04:18.925                             : en:Chapter 02
  288. 00:09:52.633                             : en:Chapter 03
  289. 00:12:13.357                             : en:Chapter 04
  290. 00:19:08.856                             : en:Chapter 05
  291. 00:23:53.390                             : en:Chapter 06
  292. 00:30:15.480                             : en:Chapter 07
  293. 00:35:29.418                             : en:Chapter 08
  294. 00:40:32.930                             : en:Chapter 09
  295. 00:46:27.701                             : en:Chapter 10
  296. 00:50:25.230                             : en:Chapter 11
  297. 00:56:18.249                             : en:Chapter 12
  298. 00:59:52.380                             : en:Chapter 13
  299. 01:05:44.941                             : en:Chapter 14
  300. 01:11:55.853                             : en:Chapter 15
  301. 01:17:04.328                             : en:Chapter 16
  302. 01:22:10.258                             : en:Chapter 17
  303. 01:30:36.639                             : en:Chapter 18
  304. 01:34:38.047                             : en:Chapter 19
  305. 01:39:21.705                             : en:Chapter 20
  306. 01:44:52.411                             : en:Chapter 21
  307. 01:49:14.464                             : en:Chapter 22
  308. 01:54:55.763                             : en:Chapter 23
  309. 01:59:36.043                             : en:Chapter 24
  310. 02:04:59.825                             : en:Chapter 25
  311. 02:10:27.027                             : en:Chapter 26
  312. 02:16:20.630                             : en:Chapter 27
  313. 02:21:04.497                             : en:Chapter 28
复制代码











                                       
                                       

                                       
                                       
                                       





回复

使用道具 举报

懒得打字嘛,点击右侧快捷回复 【右侧内容,后台自定义】
您需要登录后才可以回帖 登录 | 立即加入

本版积分规则

Archiver|小黑屋| 蓝光电影网 |网站地图

Copyright © 2021 Comsenz Inc. Powered by 蓝光电影网

蓝光电影网

本站内容由用户自主分享和转载自互联网,转载目的在于传递更多信息,并不代表本网赞同其观点和对其真实性负责。

如有侵权、违反国家法律政策行为,请联系我们,我们会第一时间及时清除和处理!

举报反馈邮箱:[email protected]

快速回复 返回顶部 返回列表