找回密码

蓝光电影网

查看: 97|回复: 1

[2160p] 加勒比海盗2:聚魂棺 Pirates.of.the.Caribbean.Dead.Mans.Chest.2006.2160p.BluRay.x265.10bit.SDR.DTS-HD.MA.TrueHD.7.1.Atmos-SWTYBLZ 41.93GB

[复制链接]
蓝光币
730
发表于 2022-1-14 13:25:56 | 显示全部楼层 |阅读模式


◎译  名 加勒比海盗2:聚魂棺/Pirates 2/加勒比海盗:神鬼奇航2(台)/加勒比海盗2:亡灵宝藏/加勒比海盜:决战魔盜王(港)
◎片  名 Pirates of the Caribbean: Dead Man's Chest
◎年  代 2006
◎产  地 美国
◎类  别 行动 / 奇异 / 冒险
◎语  言 英语,土耳其语,希腊语
◎上映日期 2006-07-07(美国)
◎豆瓣评分 8.4/10 from 372106 users
◎豆瓣链接 https://movie.douban.com/subject/1315574/
◎片  长 151分钟
◎导  演 戈尔·维宾斯基 Gore Verbinski
◎编  剧 泰德·艾略特 Ted Elliott / 特里·鲁西奥 Terry Rossio / 斯图尔特·贝亚蒂耶 Stuart Beattie / 杰·沃尔伯特 Jay Wolpert
◎主  演 约翰尼·德普 Johnny Depp
       奥兰多·布鲁姆 Orlando Bloom
       凯拉·奈特莉 Keira Knightley
       杰克·达文波特 Jack Davenport
       比尔·奈伊 Bill Nighy
       乔纳森·普雷斯 Jonathan Pryce
       李·阿伦伯格 Lee Arenberg
       麦肯锡·克鲁克 Mackenzie Crook
       凯文·麦克纳利 Kevin McNally
       大卫·拜利 David Bailie
       斯特兰·斯卡斯加德 Stellan Skarsg?rd
       汤姆·霍兰德 Tom Hollander
       娜奥米·哈里斯 Naomie Harris
       马丁·科勒巴 Martin Klebba
       大卫·斯科菲尔德 David Schofield
       亚力克斯·诺顿 Alex Norton
       劳伦·马赫 Lauren Maher
       内杰·亚当森 Nej Adamson
       卢克·德·沃夫松 Luke de Woolfson
       德里克·奥康纳 Derrick O'Connor
       德莫特·基尼 Dermot Keaney
       克里夫·阿什伯恩 Clive Ashborn
       罗比·基 Robbie Gee
       麦克斯·贝克 Max Baker
       史蒂夫·斯皮尔斯 Steve Speirs
       约翰·博斯沃尔 John Boswall
       克里斯托弗·亚当森 Christopher Adamson
       安迪·比克维奇 Andy Beckwith
       乔纳森·林斯利 Jonathan Linsley
       西蒙·米考克 Simon Meacock
       瓦妮莎·布兰奇 Vanessa Branch
       大卫·斯特恩 David Sterne
       安东尼·帕特里西奥 Anthony Patricio
       迈克尔·恩莱特 Michael Enright
       马克·可汗 Marco Khan
       大卫·扎赫迪安 David Zahedian
       法乌齐·卜拉希米 Faouzi Brahimi
       雷吉·李 Reggie Lee
       杰拉德·J·雷耶斯 Gerard J. Reyes
       哈亚提·阿克巴斯 Hayati Akbas
       斯蒂芬·阿纳尼茨 Stephen Ananicz
       拉斯蒂·格瑞斯登·博林 Rusty 'Gravestone' Bolin
       罗恩·博蒂塔 Ron Bottitta
       盖伊·查普曼 Guy Chapman
       尼尔·德蒙特 Neil D'Monte
       杰拉德·加纳 Jerald Garner
       赛米·汉拉缇 Sammi Hanratty
       达隆·亨廷顿 Dalon Huntington
       保罗·雅各布森 Paul Jacobson
       马克·约瑟夫 Marc Joseph
       乔纳森·克特 Jonathan Kite
       杰弗里·拉什 Geoffrey Rush
       金永钢 Yonggang Jin
       陆建艺 Jianyi Lu
       谢鹤群 Ho-Kwan Tse
       亚历山大苏恩佐夫 Aleksandr Sountsov
       约瑟夫·史蒂文 Joseph Steven
       尼基·泰勒·梅尔顿 Nikki Taylor Melton
       卡莉·罗森博格 Karly Rothenberg
       玛姬·蒙罗 Maggie Munro
       安·马修斯 Ann Matthews
       艾琳·沙基 Erin Sharkey
       迈克尔·博诺莫 Michael Buonomo
       马克·约瑟夫 Marc Joseph
       迈克尔·A·莱文 Michael A. Levine
       尼古拉斯·里德 Nicolas Read
       詹姆斯·S·莱文 James S. Levine
◎简  介


  诱人的杰克(约翰尼?戴普 饰)船主又返来了,此次,他碰到了更增强大的仇敌——传闻中的不死人大卫?琼斯(比尔?奈伊 饰),他驾驶着让人恐惧的“飞翔荷兰人”号快船,在速度与装备上,没有任何船可以超越它。杰克船主欠下琼斯一个血债,他必须赶在最初时限到来之前,找到破解的方式,否则他会永久背负血债,而且在余生永久成为琼斯的仆从。
  
  固然,杰克船主的好朋友威尔?特纳(奥兰多?布鲁姆 饰)也被卷入了他的坏命运傍边。由于杰克,威尔和伊丽莎白(凯拉?奈特莉 饰)的婚礼被迫取消,伊丽莎白还被关进了牢狱,威尔为了救她,只能去寻觅杰克。
  
  此次两个好朋友碰到了庞大奥秘的陆地怪物、不和睦的小岛土著、打扮富丽的占卜者戴尔玛,威尔失散多年的父亲--“拉靴带”比尔?特纳(斯特兰?斯卡斯加德)在关键时辰古怪现身,成为全局的转折点……
◎获奖情况
  第79届奥斯卡金像奖 ?(2007)
  最好视觉结果 约翰·诺尔?/?哈尔·T·希克尔?/?查尔斯·吉布森?/?艾伦·霍尔
  最好混音(提名) 保罗·马瑟?/?克里斯托弗·博伊斯?/?李·奥尔洛夫
  最好音效剪辑(提名) 乔治·沃特斯二世?/?克里斯托弗·博伊斯
  最好艺术指导(提名) 谢丽尔·卡拉西克?/?瑞克·海因里希斯
  
  第64届金球奖 ?(2007)
  电影类音乐/笑剧片最好男配角(提名) 约翰尼·德普
  
  第30届日本电影学院奖 ?(2007)
  最好外语片(提名)
  
  第16届MTV电影奖 ?(2007)
  MTV电影奖年度电影
  MTV电影奖最好表演 约翰尼·德普
  MTV电影奖最好表演(提名) 凯拉·奈特莉
  MTV电影奖最好反派(提名) 比尔·奈伊
  1. Video
  2. ID                                       : 1
  3. Format                                   : HEVC
  4. Format/Info                              : High Efficiency Video Coding
  5. Format profile                           : Main [email protected]@High
  6. Codec ID                                 : V_MPEGH/ISO/HEVC
  7. Duration                                 : 2 h 30 min
  8. Bit rate                                 : 30.3 Mb/s
  9. Width                                    : 3 840 pixels
  10. Height                                   : 1 600 pixels
  11. Display aspect ratio                     : 2.40:1
  12. Frame rate mode                          : Constant
  13. Frame rate                               : 23.976 (24000/1001/189150) FPS
  14. Color space                              : YUV
  15. Chroma subsampling                       : 4:2:0
  16. Bit depth                                : 10 bits
  17. Bits/(Pixel*Frame)                       : 0.206
  18. Stream size                              : 31.9 GiB (76%)
  19. Writing library                          : x265 3.0ed72af837053:[Windows][GCC 8.2.0][64 bit] 10bit
  20. Encoding settings                        : cpuid=1111039 / frame-threads=6 / numa-pools=40 / wpp / no-pmode / no-pme / no-psnr / no-ssim / log-level=2 / input-csp=1 / input-res=3840x1600 / interlace=0 / total-frames=216724 / level-idc=51 / high-tier=1 / uhd-bd=0 / ref=3 / no-allow-non-conformance / repeat-headers / annexb / aud / hrd / info / hash=0 / no-temporal-layers / no-open-gop / min-keyint=1 / keyint=24 / gop-lookahead=0 / bframes=4 / b-adapt=2 / b-pyramid / bframe-bias=0 / rc-lookahead=25 / lookahead-slices=4 / scenecut=40 / radl=0 / no-splice / no-intra-refresh / ctu=64 / min-cu-size=8 / no-rect / no-amp / max-tu-size=32 / tu-inter-depth=1 / tu-intra-depth=1 / limit-tu=0 / rdoq-level=0 / dynamic-rd=0.00 / no-ssim-rd / signhide / no-tskip / nr-intra=0 / nr-inter=0 / no-constrained-intra / strong-intra-smoothing / max-merge=2 / limit-refs=3 / no-limit-modes / me=1 / subme=2 / merange=57 / temporal-mvp / weightp / no-weightb / no-analyze-src-pics / deblock=0:0 / no-sao / no-sao-non-deblock / rd=3 / no-early-skip / rskip / no-fast-intra / no-tskip-fast / no-cu-lossless / no-b-intra / no-splitrd-skip / rdpenalty=0 / psy-rd=2.00 / psy-rdoq=0.00 / no-rd-refine / no-lossless / cbqpoffs=0 / crqpoffs=0 / rc=crf / crf=16.0 / qcomp=0.60 / qpstep=4 / stats-write=0 / stats-read=0 / vbv-maxrate=160000 / vbv-bufsize=160000 / vbv-init=0.9 / crf-max=0.0 / crf-min=0.0 / ipratio=1.40 / pbratio=1.30 / aq-mode=1 / aq-strength=1.00 / cutree / zone-count=0 / no-strict-cbr / qg-size=32 / no-rc-grain / qpmax=69 / qpmin=0 / no-const-vbv / sar=1 / overscan=0 / videoformat=5 / range=0 / colorprim=2 / transfer=2 / colormatrix=2 / chromaloc=0 / display-window=0 / max-cll=0,0 / min-luma=0 / max-luma=1023 / log2-max-poc-lsb=8 / vui-timing-info / vui-hrd-info / slices=1 / opt-qp-pps / opt-ref-list-length-pps / no-multi-pass-opt-rps / scenecut-bias=0.05 / no-opt-cu-delta-qp / no-aq-motion / no-hdr / no-hdr-opt / no-dhdr10-opt / no-idr-recovery-sei / analysis-reuse-level=5 / scale-factor=0 / refine-intra=0 / refine-inter=0 / refine-mv=0 / refine-ctu-distortion=0 / no-limit-sao / ctu-info=0 / no-lowpass-dct / refine-analysis-type=0 / copy-pic=1 / max-ausize-factor=1.0 / no-dynamic-refine / no-single-sei / no-hevc-aq / qp-adaptation-range=1.00
  21. Default                                  : Yes
  22. Forced                                   : No

  23. Audio #1
  24. ID                                       : 2
  25. ID in the original source medium         : 4352 (0x1100)
  26. Format                                   : MLP FBA 16-ch
  27. Format/Info                              : Meridian Lossless Packing FBA with 16-channel presentation
  28. Commercial name                          : Dolby TrueHD with Dolby Atmos
  29. Codec ID                                 : A_TRUEHD
  30. Duration                                 : 2 h 30 min
  31. Bit rate mode                            : Variable
  32. Bit rate                                 : 4 178 kb/s
  33. Maximum bit rate                         : 6 009 kb/s
  34. Channel(s)                               : 8 channels
  35. Channel layout                           : L R C LFE Ls Rs Lb Rb
  36. Sampling rate                            : 48.0 kHz
  37. Frame rate                               : 1 200.000 FPS (40 SPF)
  38. Bit depth                                : 24 bits
  39. Compression mode                         : Lossless
  40. Stream size                              : 4.40 GiB (11%)
  41. Title                                    : TrueHD 7.1 Atmos
  42. Language                                 : English
  43. Default                                  : Yes
  44. Forced                                   : No
  45. Original source medium                   : Blu-ray
  46. Number of dynamic objects                : 13
  47. Bed channel count                        : 1 channel
  48. Bed channel configuration                : LFE

  49. Audio #2
  50. ID                                       : 3
  51. Format                                   : DTS XLL
  52. Format/Info                              : Digital Theater Systems
  53. Commercial name                          : DTS-HD Master Audio
  54. Codec ID                                 : A_DTS
  55. Duration                                 : 2 h 30 min
  56. Bit rate mode                            : Variable
  57. Bit rate                                 : 4 403 kb/s
  58. Channel(s)                               : 8 channels
  59. Channel layout                           : C L R LFE Lb Rb Lss Rss
  60. Sampling rate                            : 48.0 kHz
  61. Frame rate                               : 93.750 FPS (512 SPF)
  62. Bit depth                                : 24 bits
  63. Compression mode                         : Lossless
  64. Stream size                              : 4.63 GiB (11%)
  65. Title                                    : DTS-HD MA 7.1
  66. Language                                 : English
  67. Default                                  : No
  68. Forced                                   : No

  69. Audio #3
  70. ID                                       : 4
  71. ID in the original source medium         : 4352 (0x1100)
  72. Format                                   : AC-3
  73. Format/Info                              : Audio Coding 3
  74. Commercial name                          : Dolby Digital
  75. Codec ID                                 : A_AC3
  76. Duration                                 : 2 h 30 min
  77. Bit rate mode                            : Constant
  78. Bit rate                                 : 640 kb/s
  79. Channel(s)                               : 6 channels
  80. Channel layout                           : L R C LFE Ls Rs
  81. Sampling rate                            : 48.0 kHz
  82. Frame rate                               : 31.250 FPS (1536 SPF)
  83. Compression mode                         : Lossy
  84. Stream size                              : 690 MiB (2%)
  85. Title                                    : DD 5.1
  86. Language                                 : English
  87. Service kind                             : Complete Main
  88. Default                                  : No
  89. Forced                                   : No
  90. Original source medium                   : Blu-ray

  91. Text #1
  92. ID                                       : 5
  93. Format                                   : UTF-8
  94. Codec ID                                 : S_TEXT/UTF8
  95. Codec ID/Info                            : UTF-8 Plain Text
  96. Duration                                 : 2 h 18 min
  97. Bit rate                                 : 41 b/s
  98. Count of elements                        : 1418
  99. Stream size                              : 41.7 KiB (0%)
  100. Language                                 : English
  101. Default                                  : Yes
  102. Forced                                   : No

  103. Text #2
  104. ID                                       : 6
  105. Format                                   : UTF-8
  106. Codec ID                                 : S_TEXT/UTF8
  107. Codec ID/Info                            : UTF-8 Plain Text
  108. Duration                                 : 2 h 27 min
  109. Bit rate                                 : 41 b/s
  110. Count of elements                        : 1566
  111. Stream size                              : 44.4 KiB (0%)
  112. Title                                    : SDH
  113. Language                                 : English
  114. Default                                  : No
  115. Forced                                   : No

  116. Text #3
  117. ID                                       : 7
  118. ID in the original source medium         : 4768 (0x12A0)
  119. Format                                   : PGS
  120. Muxing mode                              : zlib
  121. Codec ID                                 : S_HDMV/PGS
  122. Codec ID/Info                            : Picture based subtitle format used on BDs/HD-DVDs
  123. Duration                                 : 2 h 27 min
  124. Bit rate                                 : 28.8 kb/s
  125. Count of elements                        : 3182
  126. Stream size                              : 30.5 MiB (0%)
  127. Language                                 : English
  128. Default                                  : No
  129. Forced                                   : No
  130. Original source medium                   : Blu-ray

  131. Text #4
  132. ID                                       : 8
  133. ID in the original source medium         : 4769 (0x12A1)
  134. Format                                   : PGS
  135. Muxing mode                              : zlib
  136. Codec ID                                 : S_HDMV/PGS
  137. Codec ID/Info                            : Picture based subtitle format used on BDs/HD-DVDs
  138. Duration                                 : 2 h 20 min
  139. Bit rate                                 : 22.3 kb/s
  140. Count of elements                        : 2320
  141. Stream size                              : 22.3 MiB (0%)
  142. Language                                 : French
  143. Default                                  : No
  144. Forced                                   : No
  145. Original source medium                   : Blu-ray

  146. Text #5
  147. ID                                       : 9
  148. ID in the original source medium         : 4770 (0x12A2)
  149. Format                                   : PGS
  150. Muxing mode                              : zlib
  151. Codec ID                                 : S_HDMV/PGS
  152. Codec ID/Info                            : Picture based subtitle format used on BDs/HD-DVDs
  153. Duration                                 : 2 h 20 min
  154. Bit rate                                 : 22.4 kb/s
  155. Count of elements                        : 2518
  156. Stream size                              : 22.4 MiB (0%)
  157. Language                                 : French
  158. Default                                  : No
  159. Forced                                   : No
  160. Original source medium                   : Blu-ray

  161. Text #6
  162. ID                                       : 10
  163. ID in the original source medium         : 4771 (0x12A3)
  164. Format                                   : PGS
  165. Muxing mode                              : zlib
  166. Codec ID                                 : S_HDMV/PGS
  167. Codec ID/Info                            : Picture based subtitle format used on BDs/HD-DVDs
  168. Duration                                 : 2 h 20 min
  169. Bit rate                                 : 26.1 kb/s
  170. Count of elements                        : 2286
  171. Stream size                              : 26.2 MiB (0%)
  172. Language                                 : Spanish
  173. Default                                  : No
  174. Forced                                   : No
  175. Original source medium                   : Blu-ray

  176. Text #7
  177. ID                                       : 11
  178. ID in the original source medium         : 4772 (0x12A4)
  179. Format                                   : PGS
  180. Muxing mode                              : zlib
  181. Codec ID                                 : S_HDMV/PGS
  182. Codec ID/Info                            : Picture based subtitle format used on BDs/HD-DVDs
  183. Duration                                 : 2 h 19 min
  184. Bit rate                                 : 25.9 kb/s
  185. Count of elements                        : 2282
  186. Stream size                              : 25.9 MiB (0%)
  187. Language                                 : German
  188. Default                                  : No
  189. Forced                                   : No
  190. Original source medium                   : Blu-ray

  191. Text #8
  192. ID                                       : 12
  193. ID in the original source medium         : 4773 (0x12A5)
  194. Format                                   : PGS
  195. Muxing mode                              : zlib
  196. Codec ID                                 : S_HDMV/PGS
  197. Codec ID/Info                            : Picture based subtitle format used on BDs/HD-DVDs
  198. Duration                                 : 2 h 19 min
  199. Bit rate                                 : 20.5 kb/s
  200. Count of elements                        : 2686
  201. Stream size                              : 20.4 MiB (0%)
  202. Language                                 : Japanese
  203. Default                                  : No
  204. Forced                                   : No
  205. Original source medium                   : Blu-ray

  206. Text #9
  207. ID                                       : 13
  208. ID in the original source medium         : 4774 (0x12A6)
  209. Format                                   : PGS
  210. Muxing mode                              : zlib
  211. Codec ID                                 : S_HDMV/PGS
  212. Codec ID/Info                            : Picture based subtitle format used on BDs/HD-DVDs
  213. Duration                                 : 2 h 28 min
  214. Bit rate                                 : 21.4 kb/s
  215. Count of elements                        : 2414
  216. Stream size                              : 22.7 MiB (0%)
  217. Language                                 : Dutch
  218. Default                                  : No
  219. Forced                                   : No
  220. Original source medium                   : Blu-ray

  221. Text #10
  222. ID                                       : 14
  223. ID in the original source medium         : 4775 (0x12A7)
  224. Format                                   : PGS
  225. Muxing mode                              : zlib
  226. Codec ID                                 : S_HDMV/PGS
  227. Codec ID/Info                            : Picture based subtitle format used on BDs/HD-DVDs
  228. Duration                                 : 2 h 19 min
  229. Bit rate                                 : 25.1 kb/s
  230. Count of elements                        : 2280
  231. Stream size                              : 25.1 MiB (0%)
  232. Language                                 : Danish
  233. Default                                  : No
  234. Forced                                   : No
  235. Original source medium                   : Blu-ray

  236. Text #11
  237. ID                                       : 15
  238. ID in the original source medium         : 4776 (0x12A8)
  239. Format                                   : PGS
  240. Muxing mode                              : zlib
  241. Codec ID                                 : S_HDMV/PGS
  242. Codec ID/Info                            : Picture based subtitle format used on BDs/HD-DVDs
  243. Duration                                 : 2 h 19 min
  244. Bit rate                                 : 26.1 kb/s
  245. Count of elements                        : 2278
  246. Stream size                              : 26.2 MiB (0%)
  247. Language                                 : Finnish
  248. Default                                  : No
  249. Forced                                   : No
  250. Original source medium                   : Blu-ray

  251. Text #12
  252. ID                                       : 16
  253. ID in the original source medium         : 4777 (0x12A9)
  254. Format                                   : PGS
  255. Muxing mode                              : zlib
  256. Codec ID                                 : S_HDMV/PGS
  257. Codec ID/Info                            : Picture based subtitle format used on BDs/HD-DVDs
  258. Duration                                 : 2 h 18 min
  259. Bit rate                                 : 22.5 kb/s
  260. Count of elements                        : 2268
  261. Stream size                              : 22.4 MiB (0%)
  262. Language                                 : Norwegian
  263. Default                                  : No
  264. Forced                                   : No
  265. Original source medium                   : Blu-ray

  266. Text #13
  267. ID                                       : 17
  268. ID in the original source medium         : 4778 (0x12AA)
  269. Format                                   : PGS
  270. Muxing mode                              : zlib
  271. Codec ID                                 : S_HDMV/PGS
  272. Codec ID/Info                            : Picture based subtitle format used on BDs/HD-DVDs
  273. Duration                                 : 2 h 29 min
  274. Bit rate                                 : 21.6 kb/s
  275. Count of elements                        : 1880
  276. Stream size                              : 23.1 MiB (0%)
  277. Language                                 : Swedish
  278. Default                                  : No
  279. Forced                                   : No
  280. Original source medium                   : Blu-ray

  281. Menu
  282. 00:00:00.000                             : en:Chapter 01
  283. 00:04:18.925                             : en:Chapter 02
  284. 00:09:52.633                             : en:Chapter 03
  285. 00:12:13.357                             : en:Chapter 04
  286. 00:19:08.856                             : en:Chapter 05
  287. 00:23:53.390                             : en:Chapter 06
  288. 00:30:15.480                             : en:Chapter 07
  289. 00:35:29.418                             : en:Chapter 08
  290. 00:40:32.930                             : en:Chapter 09
  291. 00:46:27.701                             : en:Chapter 10
  292. 00:50:25.230                             : en:Chapter 11
  293. 00:56:18.249                             : en:Chapter 12
  294. 00:59:52.380                             : en:Chapter 13
  295. 01:05:44.941                             : en:Chapter 14
  296. 01:11:55.853                             : en:Chapter 15
  297. 01:17:04.328                             : en:Chapter 16
  298. 01:22:10.258                             : en:Chapter 17
  299. 01:30:36.639                             : en:Chapter 18
  300. 01:34:38.047                             : en:Chapter 19
  301. 01:39:21.705                             : en:Chapter 20
  302. 01:44:52.411                             : en:Chapter 21
  303. 01:49:14.464                             : en:Chapter 22
  304. 01:54:55.763                             : en:Chapter 23
  305. 01:59:36.043                             : en:Chapter 24
  306. 02:04:59.825                             : en:Chapter 25
  307. 02:10:27.027                             : en:Chapter 26
  308. 02:16:20.630                             : en:Chapter 27
  309. 02:21:04.497                             : en:Chapter 28
复制代码









                                       
                                       

                                       
                                       
                                       





回复

使用道具 举报

蓝光币
2
发表于 7 天前 | 显示全部楼层

楼主太厉害了!楼主,电影应该很好看我觉得蓝光电影网真是个好地方!
回复 支持 反对

使用道具 举报

懒得打字嘛,点击右侧快捷回复 【右侧内容,后台自定义】
您需要登录后才可以回帖 登录 | 立即加入

本版积分规则

Archiver|小黑屋| 蓝光电影网 |网站地图

Copyright © 2021 Comsenz Inc. Powered by 蓝光电影网

蓝光电影网

本站内容由用户自主分享和转载自互联网,转载目的在于传递更多信息,并不代表本网赞同其观点和对其真实性负责。

如有侵权、违反国家法律政策行为,请联系我们,我们会第一时间及时清除和处理!

举报反馈邮箱:[email protected]

快速回复 返回顶部 返回列表