找回密码

蓝光电影网

查看: 103|回复: 2

[2160p] 加勒比海盗3:世界的尽头 Pirates.of.the.Caribbean.At.Worlds.End.2007.2160p.BluRay.x265.10bit.SDR.DTS-HD.MA.TrueHD.7.1.Atmos-SWTYBLZ 50.57GB

[复制链接]
蓝光币
730
发表于 2022-1-14 13:28:45 | 显示全部楼层 |阅读模式


◎译  名 加勒比海盗3:天下的绝顶/Pirates 3/加勒比海盗3:灭亡声誉/加勒比海盜:魔盜王终极之战(港)/神鬼奇航:天下的绝顶(台)
◎片  名 Pirates of the Caribbean: At World's End
◎年  代 2007
◎产  地 美国
◎类  别 行动 / 奇异 / 冒险
◎语  言 英语,荷兰语
◎上映日期 2007-05-25(美国) / 2007-06-12(中国大陆)
◎豆瓣评分 8.3/10 from 347214 users
◎豆瓣链接 https://movie.douban.com/subject/1418192/
◎片  长 169分钟
◎导  演 戈尔·维宾斯基 Gore Verbinski
◎编  剧 特里·鲁西奥 Terry Rossio / 斯图尔特·贝亚蒂耶 Stuart Beattie / 泰德·艾略特 Ted Elliott / 杰·沃尔伯特 Jay Wolpert
◎主  演 约翰尼·德普 Johnny Depp
       杰弗里·拉什 Geoffrey Rush
       奥兰多·布鲁姆 Orlando Bloom
       凯拉·奈特莉 Keira Knightley
       周润发 Yun-Fat Chow
       比尔·奈伊 Bill Nighy
       安迪·比克维奇 Andy Beckwith
       克里夫·阿什伯恩 Clive Ashborn
       德莫特·基尼 Dermot Keaney
       劳伦·马赫 Lauren Maher
       塔卡尤·费舍尔 Takayo Fischer
       马塞尔·尤勒斯 Marcel Iures
       大卫·拜利 David Bailie
       塞尔希奥·卡尔德龙 Sergio Calderón
       陆建艺 Jianyi Lu
       谢鹤群 Ho-Kwan Tse
       金永钢 Yonggang Jin
       安格斯·巴尼特 Angus Barnett
       斯塔尼·科佩 Stany Coppet
       凯斯·理查德兹 Keith Richards
       杰克·达文波特 Jack Davenport
       娜奥米·哈里斯 Naomie Harris
       斯特兰·斯卡斯加德 Stellan Skarsg?rd
       雷吉·李 Reggie Lee
       布伦登·贝尔 Brendyn Bell
       加桑·马苏德 Ghassan Massoud
       汤姆·霍兰德 Tom Hollander
       乔纳森·普雷斯 Jonathan Pryce
       李·阿伦伯格 Lee Arenberg
       JB·布兰科 JB Blanc
       格雷格·埃利斯 Greg Ellis
       马绍尔·曼尼什 Marshall Manesh
       瓦妮莎·布兰奇 Vanessa Branch
       多米尼克·斯科特·凯伊 Dominic Scott Kay
       哈基姆·凯-卡西姆 Hakeem Kae-Kazim
       乔纳森·林斯利 Jonathan Linsley
       马丁·科勒巴 Martin Klebba
       凯文·麦克纳利 Kevin McNally
       麦肯锡·克鲁克 Mackenzie Crook
◎简  介


  被大章鱼吞下去的杰克船主(强尼·戴普)进入了戴维·琼斯控制的“死界”——天下的绝顶。为了拯救杰克,威尔·特纳(奥兰多·布鲁姆)、伊丽莎白(凯拉·奈特莉)和女巫等一行人也来到了“死界”。
  
  找到杰克,他们一行人解开迷咒,逃出了天下绝顶。而此时狡猾的卡特勒·贝凯特(汤姆·霍兰德)已经获得了戴维·琼斯(比尔·奈伊)的心脏,由此挟持戴维·琼斯,掌控一切的公海海盗,为东印度公司掠夺好处。为了应对危难,各地海盗头子奥秘会议,展开能否开释女海神,杀掉戴维·琼斯的争辩。
  
  本来女海神正是戴维·琼斯的旧情人,两人之间的奥妙关系,成了双方交锋的关键。在安静的海面上,风雨降将至,终极的对决行将展开。每小我面临着怎样的命运?当最初的审判竣事,大海能否重归昔日的安好?
◎获奖情况
  第80届奥斯卡金像奖 ?(2008)
  最好视觉结果(提名) 约翰·弗雷泽
  最好化装(提名) 马丁·萨缪尔?/?维·尼尔
  
  第61届英国电影学院奖 ?(2008)
  电影奖最好特别视觉结果(提名) 哈尔·T·希克尔?/?约翰·弗雷泽?/?查尔斯·吉布森?/?约翰·诺尔
  
  第17届MTV电影奖 ?(2008)
  MTV电影奖年度电影(提名)
  MTV电影奖最好笑剧表演 约翰尼·德普
  MTV电影奖最好女演员(提名) 凯拉·奈特莉
  1. Video
  2. ID                                       : 1
  3. Format                                   : HEVC
  4. Format/Info                              : High Efficiency Video Coding
  5. Format profile                           : Main [email protected]@High
  6. Codec ID                                 : V_MPEGH/ISO/HEVC
  7. Duration                                 : 2 h 48 min
  8. Bit rate                                 : 33.1 Mb/s
  9. Width                                    : 3 840 pixels
  10. Height                                   : 1 600 pixels
  11. Display aspect ratio                     : 2.40:1
  12. Frame rate mode                          : Constant
  13. Frame rate                               : 23.976 (24000/1001/189150) FPS
  14. Color space                              : YUV
  15. Chroma subsampling                       : 4:2:0
  16. Bit depth                                : 10 bits
  17. Bits/(Pixel*Frame)                       : 0.225
  18. Stream size                              : 38.9 GiB (77%)
  19. Writing library                          : x265 3.0ed72af837053:[Windows][GCC 8.2.0][64 bit] 10bit
  20. Encoding settings                        : cpuid=1111039 / frame-threads=6 / numa-pools=40 / wpp / no-pmode / no-pme / no-psnr / no-ssim / log-level=2 / input-csp=1 / input-res=3840x1600 / interlace=0 / total-frames=242356 / level-idc=51 / high-tier=1 / uhd-bd=0 / ref=3 / no-allow-non-conformance / repeat-headers / annexb / aud / hrd / info / hash=0 / no-temporal-layers / no-open-gop / min-keyint=1 / keyint=24 / gop-lookahead=0 / bframes=4 / b-adapt=2 / b-pyramid / bframe-bias=0 / rc-lookahead=25 / lookahead-slices=4 / scenecut=40 / radl=0 / no-splice / no-intra-refresh / ctu=64 / min-cu-size=8 / no-rect / no-amp / max-tu-size=32 / tu-inter-depth=1 / tu-intra-depth=1 / limit-tu=0 / rdoq-level=0 / dynamic-rd=0.00 / no-ssim-rd / signhide / no-tskip / nr-intra=0 / nr-inter=0 / no-constrained-intra / strong-intra-smoothing / max-merge=2 / limit-refs=3 / no-limit-modes / me=1 / subme=2 / merange=57 / temporal-mvp / weightp / no-weightb / no-analyze-src-pics / deblock=0:0 / no-sao / no-sao-non-deblock / rd=3 / no-early-skip / rskip / no-fast-intra / no-tskip-fast / no-cu-lossless / no-b-intra / no-splitrd-skip / rdpenalty=0 / psy-rd=2.00 / psy-rdoq=0.00 / no-rd-refine / no-lossless / cbqpoffs=0 / crqpoffs=0 / rc=crf / crf=16.0 / qcomp=0.60 / qpstep=4 / stats-write=0 / stats-read=0 / vbv-maxrate=160000 / vbv-bufsize=160000 / vbv-init=0.9 / crf-max=0.0 / crf-min=0.0 / ipratio=1.40 / pbratio=1.30 / aq-mode=1 / aq-strength=1.00 / cutree / zone-count=0 / no-strict-cbr / qg-size=32 / no-rc-grain / qpmax=69 / qpmin=0 / no-const-vbv / sar=1 / overscan=0 / videoformat=5 / range=0 / colorprim=2 / transfer=2 / colormatrix=2 / chromaloc=0 / display-window=0 / max-cll=0,0 / min-luma=0 / max-luma=1023 / log2-max-poc-lsb=8 / vui-timing-info / vui-hrd-info / slices=1 / opt-qp-pps / opt-ref-list-length-pps / no-multi-pass-opt-rps / scenecut-bias=0.05 / no-opt-cu-delta-qp / no-aq-motion / no-hdr / no-hdr-opt / no-dhdr10-opt / no-idr-recovery-sei / analysis-reuse-level=5 / scale-factor=0 / refine-intra=0 / refine-inter=0 / refine-mv=0 / refine-ctu-distortion=0 / no-limit-sao / ctu-info=0 / no-lowpass-dct / refine-analysis-type=0 / copy-pic=1 / max-ausize-factor=1.0 / no-dynamic-refine / no-single-sei / no-hevc-aq / qp-adaptation-range=1.00
  21. Default                                  : Yes
  22. Forced                                   : No

  23. Audio #1
  24. ID                                       : 2
  25. ID in the original source medium         : 4352 (0x1100)
  26. Format                                   : MLP FBA 16-ch
  27. Format/Info                              : Meridian Lossless Packing FBA with 16-channel presentation
  28. Commercial name                          : Dolby TrueHD with Dolby Atmos
  29. Codec ID                                 : A_TRUEHD
  30. Duration                                 : 2 h 48 min
  31. Bit rate mode                            : Variable
  32. Bit rate                                 : 4 190 kb/s
  33. Maximum bit rate                         : 5 988 kb/s
  34. Channel(s)                               : 8 channels
  35. Channel layout                           : L R C LFE Ls Rs Lb Rb
  36. Sampling rate                            : 48.0 kHz
  37. Frame rate                               : 1 200.000 FPS (40 SPF)
  38. Bit depth                                : 24 bits
  39. Compression mode                         : Lossless
  40. Stream size                              : 4.93 GiB (10%)
  41. Title                                    : TrueHD 7.1 Atmos
  42. Language                                 : English
  43. Default                                  : Yes
  44. Forced                                   : No
  45. Original source medium                   : Blu-ray
  46. Number of dynamic objects                : 13
  47. Bed channel count                        : 1 channel
  48. Bed channel configuration                : LFE

  49. Audio #2
  50. ID                                       : 3
  51. Format                                   : DTS XLL
  52. Format/Info                              : Digital Theater Systems
  53. Commercial name                          : DTS-HD Master Audio
  54. Codec ID                                 : A_DTS
  55. Duration                                 : 2 h 48 min
  56. Bit rate mode                            : Variable
  57. Bit rate                                 : 4 750 kb/s
  58. Channel(s)                               : 8 channels
  59. Channel layout                           : C L R LFE Lb Rb Lss Rss
  60. Sampling rate                            : 48.0 kHz
  61. Frame rate                               : 93.750 FPS (512 SPF)
  62. Bit depth                                : 24 bits
  63. Compression mode                         : Lossless
  64. Stream size                              : 5.59 GiB (11%)
  65. Title                                    : DTS-HD MA 7.1
  66. Language                                 : English
  67. Default                                  : No
  68. Forced                                   : No

  69. Audio #3
  70. ID                                       : 4
  71. ID in the original source medium         : 4352 (0x1100)
  72. Format                                   : AC-3
  73. Format/Info                              : Audio Coding 3
  74. Commercial name                          : Dolby Digital
  75. Codec ID                                 : A_AC3
  76. Duration                                 : 2 h 48 min
  77. Bit rate mode                            : Constant
  78. Bit rate                                 : 640 kb/s
  79. Channel(s)                               : 6 channels
  80. Channel layout                           : L R C LFE Ls Rs
  81. Sampling rate                            : 48.0 kHz
  82. Frame rate                               : 31.250 FPS (1536 SPF)
  83. Compression mode                         : Lossy
  84. Stream size                              : 771 MiB (1%)
  85. Title                                    : DD 5.1
  86. Language                                 : English
  87. Service kind                             : Complete Main
  88. Default                                  : No
  89. Forced                                   : No
  90. Original source medium                   : Blu-ray

  91. Text #1
  92. ID                                       : 5
  93. Format                                   : UTF-8
  94. Codec ID                                 : S_TEXT/UTF8
  95. Codec ID/Info                            : UTF-8 Plain Text
  96. Duration                                 : 2 h 46 min
  97. Bit rate                                 : 39 b/s
  98. Count of elements                        : 1565
  99. Stream size                              : 48.3 KiB (0%)
  100. Language                                 : English
  101. Default                                  : Yes
  102. Forced                                   : No

  103. Text #2
  104. ID                                       : 6
  105. Format                                   : UTF-8
  106. Codec ID                                 : S_TEXT/UTF8
  107. Codec ID/Info                            : UTF-8 Plain Text
  108. Duration                                 : 2 h 46 min
  109. Bit rate                                 : 42 b/s
  110. Count of elements                        : 1763
  111. Stream size                              : 52.0 KiB (0%)
  112. Title                                    : SDH
  113. Language                                 : English
  114. Default                                  : No
  115. Forced                                   : No

  116. Text #3
  117. ID                                       : 7
  118. ID in the original source medium         : 4768 (0x12A0)
  119. Format                                   : PGS
  120. Muxing mode                              : zlib
  121. Codec ID                                 : S_HDMV/PGS
  122. Codec ID/Info                            : Picture based subtitle format used on BDs/HD-DVDs
  123. Duration                                 : 2 h 46 min
  124. Bit rate                                 : 29.8 kb/s
  125. Count of elements                        : 3572
  126. Stream size                              : 35.5 MiB (0%)
  127. Language                                 : English
  128. Default                                  : No
  129. Forced                                   : No
  130. Original source medium                   : Blu-ray

  131. Text #4
  132. ID                                       : 8
  133. ID in the original source medium         : 4769 (0x12A1)
  134. Format                                   : PGS
  135. Muxing mode                              : zlib
  136. Codec ID                                 : S_HDMV/PGS
  137. Codec ID/Info                            : Picture based subtitle format used on BDs/HD-DVDs
  138. Duration                                 : 2 h 46 min
  139. Bit rate                                 : 22.6 kb/s
  140. Count of elements                        : 2850
  141. Stream size                              : 26.9 MiB (0%)
  142. Language                                 : French
  143. Default                                  : No
  144. Forced                                   : No
  145. Original source medium                   : Blu-ray

  146. Text #5
  147. ID                                       : 9
  148. ID in the original source medium         : 4770 (0x12A2)
  149. Format                                   : PGS
  150. Muxing mode                              : zlib
  151. Codec ID                                 : S_HDMV/PGS
  152. Codec ID/Info                            : Picture based subtitle format used on BDs/HD-DVDs
  153. Duration                                 : 2 h 46 min
  154. Bit rate                                 : 28.8 kb/s
  155. Count of elements                        : 3106
  156. Stream size                              : 34.3 MiB (0%)
  157. Language                                 : French
  158. Default                                  : No
  159. Forced                                   : No
  160. Original source medium                   : Blu-ray

  161. Text #6
  162. ID                                       : 10
  163. ID in the original source medium         : 4771 (0x12A3)
  164. Format                                   : PGS
  165. Muxing mode                              : zlib
  166. Codec ID                                 : S_HDMV/PGS
  167. Codec ID/Info                            : Picture based subtitle format used on BDs/HD-DVDs
  168. Duration                                 : 2 h 46 min
  169. Bit rate                                 : 26.7 kb/s
  170. Count of elements                        : 3016
  171. Stream size                              : 31.8 MiB (0%)
  172. Language                                 : Spanish
  173. Default                                  : No
  174. Forced                                   : No
  175. Original source medium                   : Blu-ray

  176. Text #7
  177. ID                                       : 11
  178. ID in the original source medium         : 4772 (0x12A4)
  179. Format                                   : PGS
  180. Muxing mode                              : zlib
  181. Codec ID                                 : S_HDMV/PGS
  182. Codec ID/Info                            : Picture based subtitle format used on BDs/HD-DVDs
  183. Duration                                 : 2 h 47 min
  184. Bit rate                                 : 26.5 kb/s
  185. Count of elements                        : 2866
  186. Stream size                              : 31.7 MiB (0%)
  187. Language                                 : German
  188. Default                                  : No
  189. Forced                                   : No
  190. Original source medium                   : Blu-ray

  191. Text #8
  192. ID                                       : 12
  193. ID in the original source medium         : 4773 (0x12A5)
  194. Format                                   : PGS
  195. Muxing mode                              : zlib
  196. Codec ID                                 : S_HDMV/PGS
  197. Codec ID/Info                            : Picture based subtitle format used on BDs/HD-DVDs
  198. Duration                                 : 2 h 46 min
  199. Bit rate                                 : 20.7 kb/s
  200. Count of elements                        : 3136
  201. Stream size                              : 24.7 MiB (0%)
  202. Language                                 : Japanese
  203. Default                                  : No
  204. Forced                                   : No
  205. Original source medium                   : Blu-ray

  206. Text #9
  207. ID                                       : 13
  208. ID in the original source medium         : 4774 (0x12A6)
  209. Format                                   : PGS
  210. Muxing mode                              : zlib
  211. Codec ID                                 : S_HDMV/PGS
  212. Codec ID/Info                            : Picture based subtitle format used on BDs/HD-DVDs
  213. Duration                                 : 2 h 46 min
  214. Bit rate                                 : 25.3 kb/s
  215. Count of elements                        : 2820
  216. Stream size                              : 30.2 MiB (0%)
  217. Language                                 : Dutch
  218. Default                                  : No
  219. Forced                                   : No
  220. Original source medium                   : Blu-ray

  221. Text #10
  222. ID                                       : 14
  223. ID in the original source medium         : 4775 (0x12A7)
  224. Format                                   : PGS
  225. Muxing mode                              : zlib
  226. Codec ID                                 : S_HDMV/PGS
  227. Codec ID/Info                            : Picture based subtitle format used on BDs/HD-DVDs
  228. Duration                                 : 2 h 46 min
  229. Bit rate                                 : 24.9 kb/s
  230. Count of elements                        : 2552
  231. Stream size                              : 29.6 MiB (0%)
  232. Language                                 : Danish
  233. Default                                  : No
  234. Forced                                   : No
  235. Original source medium                   : Blu-ray

  236. Text #11
  237. ID                                       : 15
  238. ID in the original source medium         : 4776 (0x12A8)
  239. Format                                   : PGS
  240. Muxing mode                              : zlib
  241. Codec ID                                 : S_HDMV/PGS
  242. Codec ID/Info                            : Picture based subtitle format used on BDs/HD-DVDs
  243. Duration                                 : 2 h 46 min
  244. Bit rate                                 : 26.8 kb/s
  245. Count of elements                        : 3034
  246. Stream size                              : 32.0 MiB (0%)
  247. Language                                 : Finnish
  248. Default                                  : No
  249. Forced                                   : No
  250. Original source medium                   : Blu-ray

  251. Text #12
  252. ID                                       : 16
  253. ID in the original source medium         : 4777 (0x12A9)
  254. Format                                   : PGS
  255. Muxing mode                              : zlib
  256. Codec ID                                 : S_HDMV/PGS
  257. Codec ID/Info                            : Picture based subtitle format used on BDs/HD-DVDs
  258. Duration                                 : 2 h 46 min
  259. Bit rate                                 : 20.2 kb/s
  260. Count of elements                        : 2900
  261. Stream size                              : 24.1 MiB (0%)
  262. Language                                 : Norwegian
  263. Default                                  : No
  264. Forced                                   : No
  265. Original source medium                   : Blu-ray

  266. Text #13
  267. ID                                       : 17
  268. ID in the original source medium         : 4778 (0x12AA)
  269. Format                                   : PGS
  270. Muxing mode                              : zlib
  271. Codec ID                                 : S_HDMV/PGS
  272. Codec ID/Info                            : Picture based subtitle format used on BDs/HD-DVDs
  273. Duration                                 : 2 h 46 min
  274. Bit rate                                 : 23.6 kb/s
  275. Count of elements                        : 2408
  276. Stream size                              : 28.1 MiB (0%)
  277. Language                                 : Swedish
  278. Default                                  : No
  279. Forced                                   : No
  280. Original source medium                   : Blu-ray

  281. Menu
  282. 00:00:00.000                             : en:Chapter 01
  283. 00:04:32.730                             : en:Chapter 02
  284. 00:10:00.141                             : en:Chapter 03
  285. 00:19:56.570                             : en:Chapter 04
  286. 00:26:05.772                             : en:Chapter 05
  287. 00:32:45.630                             : en:Chapter 06
  288. 00:39:38.751                             : en:Chapter 07
  289. 00:46:03.051                             : en:Chapter 08
  290. 00:51:30.378                             : en:Chapter 09
  291. 00:58:02.145                             : en:Chapter 10
  292. 01:04:49.093                             : en:Chapter 11
  293. 01:12:45.611                             : en:Chapter 12
  294. 01:17:53.168                             : en:Chapter 13
  295. 01:24:44.913                             : en:Chapter 14
  296. 01:28:39.689                             : en:Chapter 15
  297. 01:33:32.565                             : en:Chapter 16
  298. 01:38:04.044                             : en:Chapter 17
  299. 01:41:51.271                             : en:Chapter 18
  300. 01:48:10.692                             : en:Chapter 19
  301. 01:53:11.409                             : en:Chapter 20
  302. 01:59:29.370                             : en:Chapter 21
  303. 02:05:50.459                             : en:Chapter 22
  304. 02:09:11.493                             : en:Chapter 23
  305. 02:13:51.773                             : en:Chapter 24
  306. 02:23:17.380                             : en:Chapter 25
  307. 02:28:13.885                             : en:Chapter 26
  308. 02:34:27.466                             : en:Chapter 27
  309. 02:38:46.600                             : en:Chapter 28
复制代码







                                       
                                       

                                       
                                       
                                       





回复

使用道具 举报

蓝光币
326
发表于 2022-1-14 15:10:13 | 显示全部楼层
楼主发贴辛苦了,谢谢楼主分享!我觉得蓝光电影网是注册对了!
回复 支持 反对

使用道具 举报

蓝光币
543
发表于 2022-1-15 09:49:31 | 显示全部楼层
谢谢楼主给我们的好电影资源。
回复 支持 反对

使用道具 举报

懒得打字嘛,点击右侧快捷回复 【右侧内容,后台自定义】
您需要登录后才可以回帖 登录 | 立即加入

本版积分规则

Archiver|小黑屋| 蓝光电影网 |网站地图

Copyright © 2021 Comsenz Inc. Powered by 蓝光电影网

蓝光电影网

本站内容由用户自主分享和转载自互联网,转载目的在于传递更多信息,并不代表本网赞同其观点和对其真实性负责。

如有侵权、违反国家法律政策行为,请联系我们,我们会第一时间及时清除和处理!

举报反馈邮箱:[email protected]

快速回复 返回顶部 返回列表