找回密码

蓝光电影网

查看: 153|回复: 2

[2160p] 加勒比海盗3:世界的尽头 Pirates.of.the.Caribbean.At.Worlds.End.2007.2160p.BluRay.x264.8bit.SDR.DTS-HD.MA.TrueHD.7.1.Atmos-SWTYBLZ 57.76GB

[复制链接]
蓝光币
733
发表于 2022-1-14 13:32:12 | 显示全部楼层 |阅读模式


◎译  名 加勒比海盗3:天下的绝顶/Pirates 3/加勒比海盗3:灭亡声誉/加勒比海盜:魔盜王终极之战(港)/神鬼奇航:天下的绝顶(台)
◎片  名 Pirates of the Caribbean: At World's End
◎年  代 2007
◎产  地 美国
◎类  别 行动 / 奇异 / 冒险
◎语  言 英语,荷兰语
◎上映日期 2007-05-25(美国) / 2007-06-12(中国大陆)
◎豆瓣评分 8.3/10 from 347214 users
◎豆瓣链接 https://movie.douban.com/subject/1418192/
◎片  长 169分钟
◎导  演 戈尔·维宾斯基 Gore Verbinski
◎编  剧 特里·鲁西奥 Terry Rossio / 斯图尔特·贝亚蒂耶 Stuart Beattie / 泰德·艾略特 Ted Elliott / 杰·沃尔伯特 Jay Wolpert
◎主  演 约翰尼·德普 Johnny Depp
       杰弗里·拉什 Geoffrey Rush
       奥兰多·布鲁姆 Orlando Bloom
       凯拉·奈特莉 Keira Knightley
       周润发 Yun-Fat Chow
       比尔·奈伊 Bill Nighy
       安迪·比克维奇 Andy Beckwith
       克里夫·阿什伯恩 Clive Ashborn
       德莫特·基尼 Dermot Keaney
       劳伦·马赫 Lauren Maher
       塔卡尤·费舍尔 Takayo Fischer
       马塞尔·尤勒斯 Marcel Iures
       大卫·拜利 David Bailie
       塞尔希奥·卡尔德龙 Sergio Calderón
       陆建艺 Jianyi Lu
       谢鹤群 Ho-Kwan Tse
       金永钢 Yonggang Jin
       安格斯·巴尼特 Angus Barnett
       斯塔尼·科佩 Stany Coppet
       凯斯·理查德兹 Keith Richards
       杰克·达文波特 Jack Davenport
       娜奥米·哈里斯 Naomie Harris
       斯特兰·斯卡斯加德 Stellan Skarsg?rd
       雷吉·李 Reggie Lee
       布伦登·贝尔 Brendyn Bell
       加桑·马苏德 Ghassan Massoud
       汤姆·霍兰德 Tom Hollander
       乔纳森·普雷斯 Jonathan Pryce
       李·阿伦伯格 Lee Arenberg
       JB·布兰科 JB Blanc
       格雷格·埃利斯 Greg Ellis
       马绍尔·曼尼什 Marshall Manesh
       瓦妮莎·布兰奇 Vanessa Branch
       多米尼克·斯科特·凯伊 Dominic Scott Kay
       哈基姆·凯-卡西姆 Hakeem Kae-Kazim
       乔纳森·林斯利 Jonathan Linsley
       马丁·科勒巴 Martin Klebba
       凯文·麦克纳利 Kevin McNally
       麦肯锡·克鲁克 Mackenzie Crook
◎简  介


  被大章鱼吞下去的杰克船主(强尼·戴普)进入了戴维·琼斯控制的“死界”——天下的绝顶。为了拯救杰克,威尔·特纳(奥兰多·布鲁姆)、伊丽莎白(凯拉·奈特莉)和女巫等一行人也来到了“死界”。
  
  找到杰克,他们一行人解开迷咒,逃出了天下绝顶。而此时狡猾的卡特勒·贝凯特(汤姆·霍兰德)已经获得了戴维·琼斯(比尔·奈伊)的心脏,由此挟持戴维·琼斯,掌控一切的公海海盗,为东印度公司掠夺好处。为了应对危难,各地海盗头子奥秘会议,展开能否开释女海神,杀掉戴维·琼斯的争辩。
  
  本来女海神正是戴维·琼斯的旧情人,两人之间的奥妙关系,成了双方交锋的关键。在安静的海面上,风雨降将至,终极的对决行将展开。每小我面临着怎样的命运?当最初的审判竣事,大海能否重归昔日的安好?
◎获奖情况
  第80届奥斯卡金像奖 ?(2008)
  最好视觉结果(提名) 约翰·弗雷泽
  最好化装(提名) 马丁·萨缪尔?/?维·尼尔
  
  第61届英国电影学院奖 ?(2008)
  电影奖最好特别视觉结果(提名) 哈尔·T·希克尔?/?约翰·弗雷泽?/?查尔斯·吉布森?/?约翰·诺尔
  
  第17届MTV电影奖 ?(2008)
  MTV电影奖年度电影(提名)
  MTV电影奖最好笑剧表演 约翰尼·德普
  MTV电影奖最好女演员(提名) 凯拉·奈特莉
  1. Video
  2. ID                                       : 1
  3. Format                                   : AVC
  4. Format/Info                              : Advanced Video Codec
  5. Format profile                           : [email protected]
  6. Format settings                          : CABAC / 5 Ref Frames
  7. Format settings, CABAC                   : Yes
  8. Format settings, Reference frames        : 5 frames
  9. Codec ID                                 : V_MPEG4/ISO/AVC
  10. Duration                                 : 2 h 48 min
  11. Bit rate                                 : 39.2 Mb/s
  12. Width                                    : 3 840 pixels
  13. Height                                   : 1 600 pixels
  14. Display aspect ratio                     : 2.40:1
  15. Frame rate mode                          : Constant
  16. Frame rate                               : 23.976 (24000/1001/189150) FPS
  17. Color space                              : YUV
  18. Chroma subsampling                       : 4:2:0
  19. Bit depth                                : 8 bits
  20. Scan type                                : Progressive
  21. Bits/(Pixel*Frame)                       : 0.266
  22. Stream size                              : 46.1 GiB (80%)
  23. Writing library                          : x264 core 157 r2935 545de2f
  24. Encoding settings                        : cabac=1 / ref=5 / deblock=1:-1:-1 / analyse=0x3:0x113 / me=umh / subme=10 / psy=1 / psy_rd=1.00:0.15 / mixed_ref=1 / me_range=48 / chroma_me=1 / trellis=2 / 8x8dct=1 / cqm=0 / deadzone=21,11 / fast_pskip=1 / chroma_qp_offset=-3 / threads=50 / lookahead_threads=4 / sliced_threads=0 / nr=0 / decimate=0 / interlaced=0 / bluray_compat=0 / constrained_intra=0 / bframes=3 / b_pyramid=2 / b_adapt=2 / b_bias=0 / direct=3 / weightb=1 / open_gop=0 / weightp=2 / keyint=250 / keyint_min=23 / scenecut=40 / intra_refresh=0 / rc_lookahead=50 / rc=crf / mbtree=1 / crf=18.0 / qcomp=0.60 / qpmin=0 / qpmax=69 / qpstep=4 / ip_ratio=1.40 / aq=1:1.00
  25. Default                                  : Yes
  26. Forced                                   : No
  27. Audio #1
  28. ID                                       : 2
  29. ID in the original source medium         : 4352 (0x1100)
  30. Format                                   : MLP FBA 16-ch
  31. Format/Info                              : Meridian Lossless Packing FBA with 16-channel presentation
  32. Commercial name                          : Dolby TrueHD with Dolby Atmos
  33. Codec ID                                 : A_TRUEHD
  34. Duration                                 : 2 h 48 min
  35. Bit rate mode                            : Variable
  36. Bit rate                                 : 4 190 kb/s
  37. Maximum bit rate                         : 5 988 kb/s
  38. Channel(s)                               : 8 channels
  39. Channel layout                           : L R C LFE Ls Rs Lb Rb
  40. Sampling rate                            : 48.0 kHz
  41. Frame rate                               : 1 200.000 FPS (40 SPF)
  42. Bit depth                                : 24 bits
  43. Compression mode                         : Lossless
  44. Stream size                              : 4.93 GiB (9%)
  45. Title                                    : TrueHD 7.1 Atmos
  46. Language                                 : English
  47. Default                                  : Yes
  48. Forced                                   : No
  49. Original source medium                   : Blu-ray
  50. Number of dynamic objects                : 13
  51. Bed channel count                        : 1 channel
  52. Bed channel configuration                : LFE
  53. Audio #2
  54. ID                                       : 3
  55. Format                                   : DTS XLL
  56. Format/Info                              : Digital Theater Systems
  57. Commercial name                          : DTS-HD Master Audio
  58. Codec ID                                 : A_DTS
  59. Duration                                 : 2 h 48 min
  60. Bit rate mode                            : Variable
  61. Bit rate                                 : 4 750 kb/s
  62. Channel(s)                               : 8 channels
  63. Channel layout                           : C L R LFE Lb Rb Lss Rss
  64. Sampling rate                            : 48.0 kHz
  65. Frame rate                               : 93.750 FPS (512 SPF)
  66. Bit depth                                : 24 bits
  67. Compression mode                         : Lossless
  68. Stream size                              : 5.59 GiB (10%)
  69. Title                                    : DTS-HD MA 7.1
  70. Language                                 : English
  71. Default                                  : No
  72. Forced                                   : No
  73. Audio #3
  74. ID                                       : 4
  75. ID in the original source medium         : 4352 (0x1100)
  76. Format                                   : AC-3
  77. Format/Info                              : Audio Coding 3
  78. Commercial name                          : Dolby Digital
  79. Codec ID                                 : A_AC3
  80. Duration                                 : 2 h 48 min
  81. Bit rate mode                            : Constant
  82. Bit rate                                 : 640 kb/s
  83. Channel(s)                               : 6 channels
  84. Channel layout                           : L R C LFE Ls Rs
  85. Sampling rate                            : 48.0 kHz
  86. Frame rate                               : 31.250 FPS (1536 SPF)
  87. Compression mode                         : Lossy
  88. Stream size                              : 771 MiB (1%)
  89. Title                                    : DD 5.1
  90. Language                                 : English
  91. Service kind                             : Complete Main
  92. Default                                  : No
  93. Forced                                   : No
  94. Original source medium                   : Blu-ray
  95. Text #1
  96. ID                                       : 5
  97. Format                                   : UTF-8
  98. Codec ID                                 : S_TEXT/UTF8
  99. Codec ID/Info                            : UTF-8 Plain Text
  100. Duration                                 : 2 h 46 min
  101. Bit rate                                 : 39 b/s
  102. Count of elements                        : 1565
  103. Stream size                              : 48.3 KiB (0%)
  104. Language                                 : English
  105. Default                                  : Yes
  106. Forced                                   : No
  107. Text #2
  108. ID                                       : 6
  109. Format                                   : UTF-8
  110. Codec ID                                 : S_TEXT/UTF8
  111. Codec ID/Info                            : UTF-8 Plain Text
  112. Duration                                 : 2 h 46 min
  113. Bit rate                                 : 42 b/s
  114. Count of elements                        : 1763
  115. Stream size                              : 52.0 KiB (0%)
  116. Title                                    : SDH
  117. Language                                 : English
  118. Default                                  : No
  119. Forced                                   : No
  120. Text #3
  121. ID                                       : 7
  122. ID in the original source medium         : 4768 (0x12A0)
  123. Format                                   : PGS
  124. Muxing mode                              : zlib
  125. Codec ID                                 : S_HDMV/PGS
  126. Codec ID/Info                            : Picture based subtitle format used on BDs/HD-DVDs
  127. Duration                                 : 2 h 46 min
  128. Bit rate                                 : 29.8 kb/s
  129. Count of elements                        : 3572
  130. Stream size                              : 35.5 MiB (0%)
  131. Language                                 : English
  132. Default                                  : No
  133. Forced                                   : No
  134. Original source medium                   : Blu-ray
  135. Text #4
  136. ID                                       : 8
  137. ID in the original source medium         : 4769 (0x12A1)
  138. Format                                   : PGS
  139. Muxing mode                              : zlib
  140. Codec ID                                 : S_HDMV/PGS
  141. Codec ID/Info                            : Picture based subtitle format used on BDs/HD-DVDs
  142. Duration                                 : 2 h 46 min
  143. Bit rate                                 : 22.6 kb/s
  144. Count of elements                        : 2850
  145. Stream size                              : 26.9 MiB (0%)
  146. Language                                 : French
  147. Default                                  : No
  148. Forced                                   : No
  149. Original source medium                   : Blu-ray
  150. Text #5
  151. ID                                       : 9
  152. ID in the original source medium         : 4770 (0x12A2)
  153. Format                                   : PGS
  154. Muxing mode                              : zlib
  155. Codec ID                                 : S_HDMV/PGS
  156. Codec ID/Info                            : Picture based subtitle format used on BDs/HD-DVDs
  157. Duration                                 : 2 h 46 min
  158. Bit rate                                 : 28.8 kb/s
  159. Count of elements                        : 3106
  160. Stream size                              : 34.3 MiB (0%)
  161. Language                                 : French
  162. Default                                  : No
  163. Forced                                   : No
  164. Original source medium                   : Blu-ray
  165. Text #6
  166. ID                                       : 10
  167. ID in the original source medium         : 4771 (0x12A3)
  168. Format                                   : PGS
  169. Muxing mode                              : zlib
  170. Codec ID                                 : S_HDMV/PGS
  171. Codec ID/Info                            : Picture based subtitle format used on BDs/HD-DVDs
  172. Duration                                 : 2 h 46 min
  173. Bit rate                                 : 26.7 kb/s
  174. Count of elements                        : 3016
  175. Stream size                              : 31.8 MiB (0%)
  176. Language                                 : Spanish
  177. Default                                  : No
  178. Forced                                   : No
  179. Original source medium                   : Blu-ray
  180. Text #7
  181. ID                                       : 11
  182. ID in the original source medium         : 4772 (0x12A4)
  183. Format                                   : PGS
  184. Muxing mode                              : zlib
  185. Codec ID                                 : S_HDMV/PGS
  186. Codec ID/Info                            : Picture based subtitle format used on BDs/HD-DVDs
  187. Duration                                 : 2 h 47 min
  188. Bit rate                                 : 26.5 kb/s
  189. Count of elements                        : 2866
  190. Stream size                              : 31.7 MiB (0%)
  191. Language                                 : German
  192. Default                                  : No
  193. Forced                                   : No
  194. Original source medium                   : Blu-ray
  195. Text #8
  196. ID                                       : 12
  197. ID in the original source medium         : 4773 (0x12A5)
  198. Format                                   : PGS
  199. Muxing mode                              : zlib
  200. Codec ID                                 : S_HDMV/PGS
  201. Codec ID/Info                            : Picture based subtitle format used on BDs/HD-DVDs
  202. Duration                                 : 2 h 46 min
  203. Bit rate                                 : 20.7 kb/s
  204. Count of elements                        : 3136
  205. Stream size                              : 24.7 MiB (0%)
  206. Language                                 : Japanese
  207. Default                                  : No
  208. Forced                                   : No
  209. Original source medium                   : Blu-ray
  210. Text #9
  211. ID                                       : 13
  212. ID in the original source medium         : 4774 (0x12A6)
  213. Format                                   : PGS
  214. Muxing mode                              : zlib
  215. Codec ID                                 : S_HDMV/PGS
  216. Codec ID/Info                            : Picture based subtitle format used on BDs/HD-DVDs
  217. Duration                                 : 2 h 46 min
  218. Bit rate                                 : 25.3 kb/s
  219. Count of elements                        : 2820
  220. Stream size                              : 30.2 MiB (0%)
  221. Language                                 : Dutch
  222. Default                                  : No
  223. Forced                                   : No
  224. Original source medium                   : Blu-ray
  225. Text #10
  226. ID                                       : 14
  227. ID in the original source medium         : 4775 (0x12A7)
  228. Format                                   : PGS
  229. Muxing mode                              : zlib
  230. Codec ID                                 : S_HDMV/PGS
  231. Codec ID/Info                            : Picture based subtitle format used on BDs/HD-DVDs
  232. Duration                                 : 2 h 46 min
  233. Bit rate                                 : 24.9 kb/s
  234. Count of elements                        : 2552
  235. Stream size                              : 29.6 MiB (0%)
  236. Language                                 : Danish
  237. Default                                  : No
  238. Forced                                   : No
  239. Original source medium                   : Blu-ray
  240. Text #11
  241. ID                                       : 15
  242. ID in the original source medium         : 4776 (0x12A8)
  243. Format                                   : PGS
  244. Muxing mode                              : zlib
  245. Codec ID                                 : S_HDMV/PGS
  246. Codec ID/Info                            : Picture based subtitle format used on BDs/HD-DVDs
  247. Duration                                 : 2 h 46 min
  248. Bit rate                                 : 26.8 kb/s
  249. Count of elements                        : 3034
  250. Stream size                              : 32.0 MiB (0%)
  251. Language                                 : Finnish
  252. Default                                  : No
  253. Forced                                   : No
  254. Original source medium                   : Blu-ray
  255. Text #12
  256. ID                                       : 16
  257. ID in the original source medium         : 4777 (0x12A9)
  258. Format                                   : PGS
  259. Muxing mode                              : zlib
  260. Codec ID                                 : S_HDMV/PGS
  261. Codec ID/Info                            : Picture based subtitle format used on BDs/HD-DVDs
  262. Duration                                 : 2 h 46 min
  263. Bit rate                                 : 20.2 kb/s
  264. Count of elements                        : 2900
  265. Stream size                              : 24.1 MiB (0%)
  266. Language                                 : Norwegian
  267. Default                                  : No
  268. Forced                                   : No
  269. Original source medium                   : Blu-ray
  270. Text #13
  271. ID                                       : 17
  272. ID in the original source medium         : 4778 (0x12AA)
  273. Format                                   : PGS
  274. Muxing mode                              : zlib
  275. Codec ID                                 : S_HDMV/PGS
  276. Codec ID/Info                            : Picture based subtitle format used on BDs/HD-DVDs
  277. Duration                                 : 2 h 46 min
  278. Bit rate                                 : 23.6 kb/s
  279. Count of elements                        : 2408
  280. Stream size                              : 28.1 MiB (0%)
  281. Language                                 : Swedish
  282. Default                                  : No
  283. Forced                                   : No
  284. Original source medium                   : Blu-ray
  285. Menu
  286. 00:00:00.000                             : en:Chapter 01
  287. 00:04:32.730                             : en:Chapter 02
  288. 00:10:00.141                             : en:Chapter 03
  289. 00:19:56.570                             : en:Chapter 04
  290. 00:26:05.772                             : en:Chapter 05
  291. 00:32:45.630                             : en:Chapter 06
  292. 00:39:38.751                             : en:Chapter 07
  293. 00:46:03.051                             : en:Chapter 08
  294. 00:51:30.378                             : en:Chapter 09
  295. 00:58:02.145                             : en:Chapter 10
  296. 01:04:49.093                             : en:Chapter 11
  297. 01:12:45.611                             : en:Chapter 12
  298. 01:17:53.168                             : en:Chapter 13
  299. 01:24:44.913                             : en:Chapter 14
  300. 01:28:39.689                             : en:Chapter 15
  301. 01:33:32.565                             : en:Chapter 16
  302. 01:38:04.044                             : en:Chapter 17
  303. 01:41:51.271                             : en:Chapter 18
  304. 01:48:10.692                             : en:Chapter 19
  305. 01:53:11.409                             : en:Chapter 20
  306. 01:59:29.370                             : en:Chapter 21
  307. 02:05:50.459                             : en:Chapter 22
  308. 02:09:11.493                             : en:Chapter 23
  309. 02:13:51.773                             : en:Chapter 24
  310. 02:23:17.380                             : en:Chapter 25
  311. 02:28:13.885                             : en:Chapter 26
  312. 02:34:27.466                             : en:Chapter 27
  313. 02:38:46.600                             : en:Chapter 28
复制代码






                                       
                                       

                                       
                                       
                                       





回复

使用道具 举报

蓝光币
5
发表于 2022-1-14 17:07:34 | 显示全部楼层
4K是什么感觉
回复 支持 反对

使用道具 举报

蓝光币
11
发表于 2022-1-16 00:25:53 | 显示全部楼层

楼主太厉害了!楼主,电影应该很好看我觉得蓝光电影网真是个好地方!
回复 支持 反对

使用道具 举报

懒得打字嘛,点击右侧快捷回复 【右侧内容,后台自定义】
您需要登录后才可以回帖 登录 | 立即加入

本版积分规则

Archiver|小黑屋| 蓝光电影网 |网站地图

Copyright © 2021 Comsenz Inc. Powered by 蓝光电影网

蓝光电影网

本站内容由用户自主分享和转载自互联网,转载目的在于传递更多信息,并不代表本网赞同其观点和对其真实性负责。

如有侵权、违反国家法律政策行为,请联系我们,我们会第一时间及时清除和处理!

举报反馈邮箱:[email protected]

快速回复 返回顶部 返回列表