找回密码

蓝光电影网

查看: 307|回复: 2

[2160p] 麦克白的悲剧 The.Tragedy.of.Macbeth.2021.2160p.ATVP.WEB-DL.DDP5.1.Atmos.DV.MP4.x265-DVSUX 17.97GB

[复制链接]
蓝光币
733
发表于 2022-1-14 14:48:15 | 显示全部楼层 |阅读模式


◎译  名 麦克白的悲剧/Macbeth
◎片  名 The Tragedy of Macbeth
◎年  代 2021
◎产  地 美国
◎类  别 剧情
◎语  言 英语
◎上映日期 2021-09-24(纽约电影节) / 2021-12-25(美国) / 2022-01-14(美国收集)
◎豆瓣评分 7.8/10 from 327 users
◎豆瓣链接 https://movie.douban.com/subject/33386178/
◎片  长 105分钟
◎导  演 乔尔·科恩 Joel Coen
◎编  剧 乔尔·科恩 Joel Coen / 威廉·莎士比亚 William Shakespeare
◎主  演 丹泽尔·华盛顿 Denzel Washington
       弗兰西斯·麦克多蒙德 Frances McDormand
       阿历克斯·哈赛尔 Alex Hassell
       博迪·卡维尔 Bertie Carvel
       布莱丹·格里森 Brendan Gleeson
       科里·霍金斯 Corey Hawkins
       哈利·米尔林 Harry Melling
       迈尔斯·安德森 Miles Anderson
       马特·赫尔姆 Matt Helm
       摩西·英格拉姆 Moses Ingram
       凯瑟琳·亨特 Kathryn Hunter
       布莱恩·汤普森 Brian Thompson
       斯蒂芬·鲁特 Stephen Root
       罗伯特·吉尔贝托 Robert Gilbert
       伊桑·哈钦森 Ethan Hutchison
       理查德·肖特 Richard Short
       西恩·帕特里克·汤玛斯 Sean Patrick Thomas
       拉尔夫·伊内森 Ralph Ineson
       杰弗森·梅斯 Jefferson Mays
       奥利维亚·华盛顿 Olivia Washington
       韦恩·T·卡尔 Wayne T. Carr
       雅各布·麦卡锡 Jacob McCarthy
       麦克斯·贝克 Max Baker
◎简  介


  影片以华盛顿饰演的麦克白为主线,他被三个女巫压服,以为自己必定要成为苏格兰国王。他和野心勃勃的妻子麦克白夫人(麦克多蒙德饰)一路,起头把预言酿成现实……成果是大量的鲜血、变节和灭亡。格里森饰演国王邓肯,米尔林饰演邓肯的儿子马尔科姆,霍金斯饰演麦克达夫。布鲁诺·德尔邦内尔([醉乡民谣])担任摄影师。
◎获奖情况
  第79届金球奖 ?(2022)
  电影类剧情片最好男配角(提名) 丹泽尔·华盛顿
  
  第28届美国演员工会奖 ?(2022)
  电影奖最好男配角(提名) 丹泽尔·华盛顿
  
  第87届纽约影评人协会奖 ?(2021)
  最好女配角 凯瑟琳·亨特
  1. Video
  2. ID                                       : 1
  3. Format                                   : HEVC
  4. Format/Info                              : High Efficiency Video Coding
  5. Format profile                           : Main [email protected]@High
  6. HDR format                               : Dolby Vision, Version 1.0, dvhe.05.06, BL+RPU
  7. Codec ID                                 : dvhe
  8. Codec ID/Info                            : High Efficiency Video Coding with Dolby Vision
  9. Duration                                 : 1 h 45 min
  10. Bit rate                                 : 23.7 Mb/s
  11. Width                                    : 2 960 pixels
  12. Original width                           : 2 956 pixels
  13. Height                                   : 2 160 pixels
  14. Display aspect ratio                     : 1.370
  15. Original display aspect ratio            : 4:3
  16. Frame rate mode                          : Constant
  17. Frame rate                               : 23.976 (24000/1001/189150) FPS
  18. Color space                              : YUV
  19. Chroma subsampling                       : 4:2:0
  20. Bit depth                                : 10 bits
  21. Bits/(Pixel*Frame)                       : 0.155
  22. Stream size                              : 17.4 GiB (97%)
  23. Default                                  : Yes
  24. Alternate group                          : 1
  25. Encoded date                             : UTC 2022-01-14 05:00:57
  26. Tagged date                              : UTC 2022-01-14 05:02:58
  27. Codec configuration box                  : hvcC+dvcC
  28. Audio
  29. ID                                       : 2
  30. Format                                   : E-AC-3 JOC
  31. Format/Info                              : Enhanced AC-3 with Joint Object Coding
  32. Commercial name                          : Dolby Digital Plus with Dolby Atmos
  33. Codec ID                                 : ec-3
  34. Duration                                 : 1 h 45 min
  35. Bit rate mode                            : Constant
  36. Bit rate                                 : 768 kb/s
  37. Maximum bit rate                         : 811 kb/s
  38. Channel(s)                               : 6 channels
  39. Channel layout                           : L R C LFE Ls Rs
  40. Sampling rate                            : 48.0 kHz
  41. Frame rate                               : 31.250 FPS (1536 SPF)
  42. Compression mode                         : Lossy
  43. Stream size                              : 578 MiB (3%)
  44. Title                                    : English
  45. Language                                 : English
  46. Service kind                             : Complete Main
  47. Default                                  : Yes
  48. Alternate group                          : 1
  49. Tagged date                              : UTC 2022-01-14 05:02:58
  50. Complexity index                         : Not present / 16
  51. Number of dynamic objects                : 15
  52. Bed channel count                        : 1 channel
  53. Bed channel configuration                : LFE
  54. Text #1
  55. ID                                       : 3
  56. Format                                   : Timed Text
  57. Codec ID                                 : tx3g
  58. Duration                                 : 1 h 41 min
  59. Bit rate mode                            : Variable
  60. Bit rate                                 : 88 b/s
  61. Stream size                              : 65.3 KiB (0%)
  62. Title                                    : English
  63. Language                                 : English
  64. Forced                                   : No
  65. Encoded date                             : UTC 2022-01-14 05:02:55
  66. Tagged date                              : UTC 2022-01-14 05:02:58
  67. Text #2
  68. ID                                       : 4
  69. Format                                   : Timed Text
  70. Codec ID                                 : tx3g
  71. Duration                                 : 1 h 40 min
  72. Bit rate mode                            : Variable
  73. Bit rate                                 : 82 b/s
  74. Stream size                              : 60.3 KiB (0%)
  75. Title                                    : English
  76. Language                                 : English
  77. Forced                                   : No
  78. Encoded date                             : UTC 2022-01-14 05:02:55
  79. Tagged date                              : UTC 2022-01-14 05:02:58
  80. Text #3
  81. ID                                       : 5
  82. Format                                   : Timed Text
  83. Codec ID                                 : tx3g
  84. Duration                                 : 1 h 44 min
  85. Bit rate mode                            : Variable
  86. Bit rate                                 : 102 b/s
  87. Stream size                              : 78.2 KiB (0%)
  88. Title                                    : Arabic
  89. Language                                 : Arabic
  90. Forced                                   : No
  91. Encoded date                             : UTC 2022-01-14 05:02:55
  92. Tagged date                              : UTC 2022-01-14 05:02:58
  93. Text #4
  94. ID                                       : 6
  95. Format                                   : Timed Text
  96. Codec ID                                 : tx3g
  97. Duration                                 : 1 h 44 min
  98. Bit rate mode                            : Variable
  99. Bit rate                                 : 118 b/s
  100. Stream size                              : 90.9 KiB (0%)
  101. Title                                    : Bulgarian
  102. Language                                 : Bulgarian
  103. Forced                                   : No
  104. Encoded date                             : UTC 2022-01-14 05:02:55
  105. Tagged date                              : UTC 2022-01-14 05:02:58
  106. Text #5
  107. ID                                       : 7
  108. Format                                   : Timed Text
  109. Codec ID                                 : tx3g
  110. Duration                                 : 1 h 44 min
  111. Bit rate mode                            : Variable
  112. Bit rate                                 : 73 b/s
  113. Stream size                              : 55.8 KiB (0%)
  114. Title                                    : Chinese-Cantonese
  115. Language                                 : Chinese
  116. Forced                                   : No
  117. Encoded date                             : UTC 2022-01-14 05:02:56
  118. Tagged date                              : UTC 2022-01-14 05:02:58
  119. Text #6
  120. ID                                       : 8
  121. Format                                   : Timed Text
  122. Codec ID                                 : tx3g
  123. Duration                                 : 1 h 44 min
  124. Bit rate mode                            : Variable
  125. Bit rate                                 : 74 b/s
  126. Stream size                              : 56.7 KiB (0%)
  127. Title                                    : Chinese-Simplified
  128. Language                                 : Chinese
  129. Forced                                   : No
  130. Encoded date                             : UTC 2022-01-14 05:02:56
  131. Tagged date                              : UTC 2022-01-14 05:02:58
  132. Text #7
  133. ID                                       : 9
  134. Format                                   : Timed Text
  135. Codec ID                                 : tx3g
  136. Duration                                 : 1 h 44 min
  137. Bit rate mode                            : Variable
  138. Bit rate                                 : 68 b/s
  139. Stream size                              : 52.0 KiB (0%)
  140. Title                                    : Chinese-Traditional
  141. Language                                 : Chinese
  142. Forced                                   : No
  143. Encoded date                             : UTC 2022-01-14 05:02:56
  144. Tagged date                              : UTC 2022-01-14 05:02:58
  145. Text #8
  146. ID                                       : 10
  147. Format                                   : Timed Text
  148. Codec ID                                 : tx3g
  149. Duration                                 : 1 h 44 min
  150. Bit rate mode                            : Variable
  151. Bit rate                                 : 69 b/s
  152. Stream size                              : 52.9 KiB (0%)
  153. Title                                    : Czech
  154. Language                                 : Czech
  155. Forced                                   : No
  156. Encoded date                             : UTC 2022-01-14 05:02:56
  157. Tagged date                              : UTC 2022-01-14 05:02:58
  158. Text #9
  159. ID                                       : 11
  160. Format                                   : Timed Text
  161. Codec ID                                 : tx3g
  162. Duration                                 : 1 h 44 min
  163. Bit rate mode                            : Variable
  164. Bit rate                                 : 75 b/s
  165. Stream size                              : 57.9 KiB (0%)
  166. Title                                    : Danish
  167. Language                                 : Danish
  168. Forced                                   : No
  169. Encoded date                             : UTC 2022-01-14 05:02:56
  170. Tagged date                              : UTC 2022-01-14 05:02:58
  171. Text #10
  172. ID                                       : 12
  173. Format                                   : Timed Text
  174. Codec ID                                 : tx3g
  175. Duration                                 : 1 h 44 min
  176. Bit rate mode                            : Variable
  177. Bit rate                                 : 73 b/s
  178. Stream size                              : 56.2 KiB (0%)
  179. Title                                    : Dutch
  180. Language                                 : Dutch
  181. Forced                                   : No
  182. Encoded date                             : UTC 2022-01-14 05:02:56
  183. Tagged date                              : UTC 2022-01-14 05:02:58
  184. Text #11
  185. ID                                       : 13
  186. Format                                   : Timed Text
  187. Codec ID                                 : tx3g
  188. Duration                                 : 1 h 44 min
  189. Bit rate mode                            : Variable
  190. Bit rate                                 : 69 b/s
  191. Stream size                              : 53.4 KiB (0%)
  192. Title                                    : Estonian
  193. Language                                 : Estonian
  194. Forced                                   : No
  195. Encoded date                             : UTC 2022-01-14 05:02:56
  196. Tagged date                              : UTC 2022-01-14 05:02:58
  197. Text #12
  198. ID                                       : 14
  199. Format                                   : Timed Text
  200. Codec ID                                 : tx3g
  201. Duration                                 : 1 h 44 min
  202. Bit rate mode                            : Variable
  203. Bit rate                                 : 74 b/s
  204. Stream size                              : 56.7 KiB (0%)
  205. Title                                    : Finnish
  206. Language                                 : Finnish
  207. Forced                                   : No
  208. Encoded date                             : UTC 2022-01-14 05:02:56
  209. Tagged date                              : UTC 2022-01-14 05:02:58
  210. Text #13
  211. ID                                       : 15
  212. Format                                   : Timed Text
  213. Codec ID                                 : tx3g
  214. Duration                                 : 1 h 45 min
  215. Bit rate mode                            : Variable
  216. Bit rate                                 : 81 b/s
  217. Stream size                              : 62.5 KiB (0%)
  218. Title                                    : French
  219. Language                                 : French
  220. Forced                                   : No
  221. Encoded date                             : UTC 2022-01-14 05:02:56
  222. Tagged date                              : UTC 2022-01-14 05:02:58
  223. Text #14
  224. ID                                       : 16
  225. Format                                   : Timed Text
  226. Codec ID                                 : tx3g
  227. Duration                                 : 1 h 45 min
  228. Bit rate mode                            : Variable
  229. Bit rate                                 : 81 b/s
  230. Stream size                              : 62.5 KiB (0%)
  231. Title                                    : French-CA
  232. Language                                 : French
  233. Forced                                   : No
  234. Encoded date                             : UTC 2022-01-14 05:02:56
  235. Tagged date                              : UTC 2022-01-14 05:02:58
  236. Text #15
  237. ID                                       : 17
  238. Format                                   : Timed Text
  239. Codec ID                                 : tx3g
  240. Duration                                 : 1 h 45 min
  241. Bit rate mode                            : Variable
  242. Bit rate                                 : 78 b/s
  243. Stream size                              : 59.7 KiB (0%)
  244. Title                                    : German
  245. Language                                 : German
  246. Forced                                   : No
  247. Encoded date                             : UTC 2022-01-14 05:02:56
  248. Tagged date                              : UTC 2022-01-14 05:02:58
  249. Text #16
  250. ID                                       : 18
  251. Format                                   : Timed Text
  252. Codec ID                                 : tx3g
  253. Duration                                 : 1 h 44 min
  254. Bit rate mode                            : Variable
  255. Bit rate                                 : 131 b/s
  256. Stream size                              : 101 KiB (0%)
  257. Title                                    : Greek
  258. Language                                 : Greek
  259. Forced                                   : No
  260. Encoded date                             : UTC 2022-01-14 05:02:56
  261. Tagged date                              : UTC 2022-01-14 05:02:58
  262. Text #17
  263. ID                                       : 19
  264. Format                                   : Timed Text
  265. Codec ID                                 : tx3g
  266. Duration                                 : 1 h 44 min
  267. Bit rate mode                            : Variable
  268. Bit rate                                 : 95 b/s
  269. Stream size                              : 72.8 KiB (0%)
  270. Title                                    : Hebrew
  271. Language                                 : Hebrew
  272. Forced                                   : No
  273. Encoded date                             : UTC 2022-01-14 05:02:56
  274. Tagged date                              : UTC 2022-01-14 05:02:58
  275. Text #18
  276. ID                                       : 20
  277. Format                                   : Timed Text
  278. Codec ID                                 : tx3g
  279. Duration                                 : 1 h 44 min
  280. Bit rate mode                            : Variable
  281. Bit rate                                 : 215 b/s
  282. Stream size                              : 165 KiB (0%)
  283. Title                                    : Hindi
  284. Language                                 : Hindi
  285. Forced                                   : No
  286. Encoded date                             : UTC 2022-01-14 05:02:56
  287. Tagged date                              : UTC 2022-01-14 05:02:58
  288. Text #19
  289. ID                                       : 21
  290. Format                                   : Timed Text
  291. Codec ID                                 : tx3g
  292. Duration                                 : 1 h 44 min
  293. Bit rate mode                            : Variable
  294. Bit rate                                 : 78 b/s
  295. Stream size                              : 60.3 KiB (0%)
  296. Title                                    : Hungarian
  297. Language                                 : Hungarian
  298. Forced                                   : No
  299. Encoded date                             : UTC 2022-01-14 05:02:57
  300. Tagged date                              : UTC 2022-01-14 05:02:58
  301. Text #20
  302. ID                                       : 22
  303. Format                                   : Timed Text
  304. Codec ID                                 : tx3g
  305. Duration                                 : 1 h 44 min
  306. Bit rate mode                            : Variable
  307. Bit rate                                 : 82 b/s
  308. Stream size                              : 63.4 KiB (0%)
  309. Title                                    : Indonesian
  310. Language                                 : Indonesian
  311. Forced                                   : No
  312. Encoded date                             : UTC 2022-01-14 05:02:57
  313. Tagged date                              : UTC 2022-01-14 05:02:58
  314. Text #21
  315. ID                                       : 23
  316. Format                                   : Timed Text
  317. Codec ID                                 : tx3g
  318. Duration                                 : 1 h 44 min
  319. Bit rate mode                            : Variable
  320. Bit rate                                 : 81 b/s
  321. Stream size                              : 62.3 KiB (0%)
  322. Title                                    : Italian
  323. Language                                 : Italian
  324. Forced                                   : No
  325. Encoded date                             : UTC 2022-01-14 05:02:57
  326. Tagged date                              : UTC 2022-01-14 05:02:58
  327. Text #22
  328. ID                                       : 24
  329. Format                                   : Timed Text
  330. Codec ID                                 : tx3g
  331. Duration                                 : 1 h 45 min
  332. Bit rate mode                            : Variable
  333. Bit rate                                 : 70 b/s
  334. Stream size                              : 53.6 KiB (0%)
  335. Title                                    : Japanese
  336. Language                                 : Japanese
  337. Forced                                   : No
  338. Encoded date                             : UTC 2022-01-14 05:02:57
  339. Tagged date                              : UTC 2022-01-14 05:02:58
  340. Text #23
  341. ID                                       : 25
  342. Format                                   : Timed Text
  343. Codec ID                                 : tx3g
  344. Duration                                 : 1 h 44 min
  345. Bit rate mode                            : Variable
  346. Bit rate                                 : 88 b/s
  347. Stream size                              : 67.5 KiB (0%)
  348. Title                                    : Korean
  349. Language                                 : Korean
  350. Forced                                   : No
  351. Encoded date                             : UTC 2022-01-14 05:02:57
  352. Tagged date                              : UTC 2022-01-14 05:02:58
  353. Text #24
  354. ID                                       : 26
  355. Format                                   : Timed Text
  356. Codec ID                                 : tx3g
  357. Duration                                 : 1 h 44 min
  358. Bit rate mode                            : Variable
  359. Bit rate                                 : 77 b/s
  360. Stream size                              : 59.4 KiB (0%)
  361. Title                                    : Latvian
  362. Language                                 : Latvian
  363. Forced                                   : No
  364. Encoded date                             : UTC 2022-01-14 05:02:57
  365. Tagged date                              : UTC 2022-01-14 05:02:58
  366. Text #25
  367. ID                                       : 27
  368. Format                                   : Timed Text
  369. Codec ID                                 : tx3g
  370. Duration                                 : 1 h 44 min
  371. Bit rate mode                            : Variable
  372. Bit rate                                 : 78 b/s
  373. Stream size                              : 60.3 KiB (0%)
  374. Title                                    : Lithuanian
  375. Language                                 : Lithuanian
  376. Forced                                   : No
  377. Encoded date                             : UTC 2022-01-14 05:02:57
  378. Tagged date                              : UTC 2022-01-14 05:02:58
  379. Text #26
  380. ID                                       : 28
  381. Format                                   : Timed Text
  382. Codec ID                                 : tx3g
  383. Duration                                 : 1 h 44 min
  384. Bit rate mode                            : Variable
  385. Bit rate                                 : 77 b/s
  386. Stream size                              : 59.0 KiB (0%)
  387. Title                                    : Malay
  388. Language                                 : Malay
  389. Forced                                   : No
  390. Encoded date                             : UTC 2022-01-14 05:02:57
  391. Tagged date                              : UTC 2022-01-14 05:02:58
  392. Text #27
  393. ID                                       : 29
  394. Format                                   : Timed Text
  395. Codec ID                                 : tx3g
  396. Duration                                 : 1 h 44 min
  397. Bit rate mode                            : Variable
  398. Bit rate                                 : 72 b/s
  399. Stream size                              : 55.3 KiB (0%)
  400. Title                                    : Norwegian
  401. Language                                 : Norwegian
  402. Forced                                   : No
  403. Encoded date                             : UTC 2022-01-14 05:02:57
  404. Tagged date                              : UTC 2022-01-14 05:02:58
  405. Text #28
  406. ID                                       : 30
  407. Format                                   : Timed Text
  408. Codec ID                                 : tx3g
  409. Duration                                 : 1 h 44 min
  410. Bit rate mode                            : Variable
  411. Bit rate                                 : 78 b/s
  412. Stream size                              : 60.1 KiB (0%)
  413. Title                                    : Polish
  414. Language                                 : Polish
  415. Forced                                   : No
  416. Encoded date                             : UTC 2022-01-14 05:02:57
  417. Tagged date                              : UTC 2022-01-14 05:02:58
  418. Text #29
  419. ID                                       : 31
  420. Format                                   : Timed Text
  421. Codec ID                                 : tx3g
  422. Duration                                 : 1 h 44 min
  423. Bit rate mode                            : Variable
  424. Bit rate                                 : 79 b/s
  425. Stream size                              : 60.9 KiB (0%)
  426. Title                                    : Portuguese
  427. Language                                 : Portuguese
  428. Forced                                   : No
  429. Encoded date                             : UTC 2022-01-14 05:02:57
  430. Tagged date                              : UTC 2022-01-14 05:02:58
  431. Text #30
  432. ID                                       : 32
  433. Format                                   : Timed Text
  434. Codec ID                                 : tx3g
  435. Duration                                 : 1 h 44 min
  436. Bit rate mode                            : Variable
  437. Bit rate                                 : 79 b/s
  438. Stream size                              : 61.0 KiB (0%)
  439. Title                                    : Portuguese-BR
  440. Language                                 : Portuguese
  441. Forced                                   : No
  442. Encoded date                             : UTC 2022-01-14 05:02:57
  443. Tagged date                              : UTC 2022-01-14 05:02:58
  444. Text #31
  445. ID                                       : 33
  446. Format                                   : Timed Text
  447. Codec ID                                 : tx3g
  448. Duration                                 : 1 h 45 min
  449. Bit rate mode                            : Variable
  450. Bit rate                                 : 112 b/s
  451. Stream size                              : 86.2 KiB (0%)
  452. Title                                    : Russian
  453. Language                                 : Russian
  454. Forced                                   : No
  455. Encoded date                             : UTC 2022-01-14 05:02:57
  456. Tagged date                              : UTC 2022-01-14 05:02:58
  457. Text #32
  458. ID                                       : 34
  459. Format                                   : Timed Text
  460. Codec ID                                 : tx3g
  461. Duration                                 : 1 h 44 min
  462. Bit rate mode                            : Variable
  463. Bit rate                                 : 71 b/s
  464. Stream size                              : 54.8 KiB (0%)
  465. Title                                    : Slovak
  466. Language                                 : Slovak
  467. Forced                                   : No
  468. Encoded date                             : UTC 2022-01-14 05:02:57
  469. Tagged date                              : UTC 2022-01-14 05:02:58
  470. Text #33
  471. ID                                       : 35
  472. Format                                   : Timed Text
  473. Codec ID                                 : tx3g
  474. Duration                                 : 1 h 44 min
  475. Bit rate mode                            : Variable
  476. Bit rate                                 : 67 b/s
  477. Stream size                              : 51.7 KiB (0%)
  478. Title                                    : Slovenian
  479. Language                                 : Slovenian
  480. Forced                                   : No
  481. Encoded date                             : UTC 2022-01-14 05:02:57
  482. Tagged date                              : UTC 2022-01-14 05:02:58
  483. Text #34
  484. ID                                       : 36
  485. Format                                   : Timed Text
  486. Codec ID                                 : tx3g
  487. Duration                                 : 1 h 44 min
  488. Bit rate mode                            : Variable
  489. Bit rate                                 : 76 b/s
  490. Stream size                              : 58.6 KiB (0%)
  491. Title                                    : Spanish
  492. Language                                 : Spanish
  493. Forced                                   : No
  494. Encoded date                             : UTC 2022-01-14 05:02:58
  495. Tagged date                              : UTC 2022-01-14 05:02:58
  496. Text #35
  497. ID                                       : 37
  498. Format                                   : Timed Text
  499. Codec ID                                 : tx3g
  500. Duration                                 : 1 h 44 min
  501. Bit rate mode                            : Variable
  502. Bit rate                                 : 76 b/s
  503. Stream size                              : 58.8 KiB (0%)
  504. Title                                    : Spanish-EU
  505. Language                                 : Spanish
  506. Forced                                   : No
  507. Encoded date                             : UTC 2022-01-14 05:02:58
  508. Tagged date                              : UTC 2022-01-14 05:02:58
  509. Text #36
  510. ID                                       : 38
  511. Format                                   : Timed Text
  512. Codec ID                                 : tx3g
  513. Duration                                 : 1 h 44 min
  514. Bit rate mode                            : Variable
  515. Bit rate                                 : 71 b/s
  516. Stream size                              : 54.7 KiB (0%)
  517. Title                                    : Swedish
  518. Language                                 : Swedish
  519. Forced                                   : No
  520. Encoded date                             : UTC 2022-01-14 05:02:58
  521. Tagged date                              : UTC 2022-01-14 05:02:58
  522. Text #37
  523. ID                                       : 39
  524. Format                                   : Timed Text
  525. Codec ID                                 : tx3g
  526. Duration                                 : 1 h 44 min
  527. Bit rate mode                            : Variable
  528. Bit rate                                 : 256 b/s
  529. Stream size                              : 197 KiB (0%)
  530. Title                                    : Tamil
  531. Language                                 : Tamil
  532. Forced                                   : No
  533. Encoded date                             : UTC 2022-01-14 05:02:58
  534. Tagged date                              : UTC 2022-01-14 05:02:58
  535. Text #38
  536. ID                                       : 40
  537. Format                                   : Timed Text
  538. Codec ID                                 : tx3g
  539. Duration                                 : 1 h 44 min
  540. Bit rate mode                            : Variable
  541. Bit rate                                 : 213 b/s
  542. Stream size                              : 163 KiB (0%)
  543. Title                                    : Telugu
  544. Language                                 : Telugu
  545. Forced                                   : No
  546. Encoded date                             : UTC 2022-01-14 05:02:58
  547. Tagged date                              : UTC 2022-01-14 05:02:58
  548. Text #39
  549. ID                                       : 41
  550. Format                                   : Timed Text
  551. Codec ID                                 : tx3g
  552. Duration                                 : 1 h 44 min
  553. Bit rate mode                            : Variable
  554. Bit rate                                 : 188 b/s
  555. Stream size                              : 145 KiB (0%)
  556. Title                                    : Thai
  557. Language                                 : Thai
  558. Forced                                   : No
  559. Encoded date                             : UTC 2022-01-14 05:02:58
  560. Tagged date                              : UTC 2022-01-14 05:02:58
  561. Text #40
  562. ID                                       : 42
  563. Format                                   : Timed Text
  564. Codec ID                                 : tx3g
  565. Duration                                 : 1 h 44 min
  566. Bit rate mode                            : Variable
  567. Bit rate                                 : 82 b/s
  568. Stream size                              : 62.8 KiB (0%)
  569. Title                                    : Turkish
  570. Language                                 : Turkish
  571. Forced                                   : No
  572. Encoded date                             : UTC 2022-01-14 05:02:58
  573. Tagged date                              : UTC 2022-01-14 05:02:58
  574. Text #41
  575. ID                                       : 43
  576. Format                                   : Timed Text
  577. Codec ID                                 : tx3g
  578. Duration                                 : 1 h 44 min
  579. Bit rate mode                            : Variable
  580. Bit rate                                 : 112 b/s
  581. Stream size                              : 86.2 KiB (0%)
  582. Title                                    : Ukrainian
  583. Language                                 : Ukrainian
  584. Forced                                   : No
  585. Encoded date                             : UTC 2022-01-14 05:02:58
  586. Tagged date                              : UTC 2022-01-14 05:02:58
  587. Text #42
  588. ID                                       : 44
  589. Format                                   : Timed Text
  590. Codec ID                                 : tx3g
  591. Duration                                 : 1 h 44 min
  592. Bit rate mode                            : Variable
  593. Bit rate                                 : 99 b/s
  594. Stream size                              : 75.9 KiB (0%)
  595. Title                                    : Vietnamese
  596. Language                                 : Vietnamese
  597. Forced                                   : No
  598. Encoded date                             : UTC 2022-01-14 05:02:58
  599. Tagged date                              : UTC 2022-01-14 05:02:58
复制代码






                                       
                                       

                                       
                                       
                                       




回复

使用道具 举报

蓝光币
651
发表于 2022-1-14 16:25:19 | 显示全部楼层
不错,收下了。
回复 支持 反对

使用道具 举报

蓝光币
4
发表于 2022-1-15 09:20:01 | 显示全部楼层
感谢楼主分享
回复 支持 反对

使用道具 举报

懒得打字嘛,点击右侧快捷回复 【右侧内容,后台自定义】
您需要登录后才可以回帖 登录 | 立即加入

本版积分规则

Archiver|小黑屋| 蓝光电影网 |网站地图

Copyright © 2021 Comsenz Inc. Powered by 蓝光电影网

蓝光电影网

本站内容由用户自主分享和转载自互联网,转载目的在于传递更多信息,并不代表本网赞同其观点和对其真实性负责。

如有侵权、违反国家法律政策行为,请联系我们,我们会第一时间及时清除和处理!

举报反馈邮箱:[email protected]

快速回复 返回顶部 返回列表