找回密码

蓝光电影网

查看: 162|回复: 1

[2160p] 麦克白的悲剧 The.Tragedy.of.Macbeth.2021.2160p.ATVP.WEB-DL.DDP5.1.Atmos.DV.MKV.x265-TEPES 17.97GB

[复制链接]
蓝光币
733
发表于 2022-1-14 14:48:12 | 显示全部楼层 |阅读模式


◎译  名 麦克白的悲剧/Macbeth
◎片  名 The Tragedy of Macbeth
◎年  代 2021
◎产  地 美国
◎类  别 剧情
◎语  言 英语
◎上映日期 2021-09-24(纽约电影节) / 2021-12-25(美国) / 2022-01-14(美国收集)
◎豆瓣评分 7.8/10 from 327 users
◎豆瓣链接 https://movie.douban.com/subject/33386178/
◎片  长 105分钟
◎导  演 乔尔·科恩 Joel Coen
◎编  剧 乔尔·科恩 Joel Coen / 威廉·莎士比亚 William Shakespeare
◎主  演 丹泽尔·华盛顿 Denzel Washington
       弗兰西斯·麦克多蒙德 Frances McDormand
       阿历克斯·哈赛尔 Alex Hassell
       博迪·卡维尔 Bertie Carvel
       布莱丹·格里森 Brendan Gleeson
       科里·霍金斯 Corey Hawkins
       哈利·米尔林 Harry Melling
       迈尔斯·安德森 Miles Anderson
       马特·赫尔姆 Matt Helm
       摩西·英格拉姆 Moses Ingram
       凯瑟琳·亨特 Kathryn Hunter
       布莱恩·汤普森 Brian Thompson
       斯蒂芬·鲁特 Stephen Root
       罗伯特·吉尔贝托 Robert Gilbert
       伊桑·哈钦森 Ethan Hutchison
       理查德·肖特 Richard Short
       西恩·帕特里克·汤玛斯 Sean Patrick Thomas
       拉尔夫·伊内森 Ralph Ineson
       杰弗森·梅斯 Jefferson Mays
       奥利维亚·华盛顿 Olivia Washington
       韦恩·T·卡尔 Wayne T. Carr
       雅各布·麦卡锡 Jacob McCarthy
       麦克斯·贝克 Max Baker
◎简  介


  影片以华盛顿饰演的麦克白为主线,他被三个女巫压服,以为自己必定要成为苏格兰国王。他和野心勃勃的妻子麦克白夫人(麦克多蒙德饰)一路,起头把预言酿成现实……成果是大量的鲜血、变节和灭亡。格里森饰演国王邓肯,米尔林饰演邓肯的儿子马尔科姆,霍金斯饰演麦克达夫。布鲁诺·德尔邦内尔([醉乡民谣])担任摄影师。
◎获奖情况
  第79届金球奖 ?(2022)
  电影类剧情片最好男配角(提名) 丹泽尔·华盛顿
  
  第28届美国演员工会奖 ?(2022)
  电影奖最好男配角(提名) 丹泽尔·华盛顿
  
  第87届纽约影评人协会奖 ?(2021)
  最好女配角 凯瑟琳·亨特
  1. Video
  2. ID                                       : 1
  3. Format                                   : HEVC
  4. Format/Info                              : High Efficiency Video Coding
  5. Format profile                           : Main [email protected]@High
  6. HDR format                               : Dolby Vision, Version 1.0, dvhe.05.06, BL+RPU
  7. Codec ID                                 : V_MPEGH/ISO/HEVC
  8. Duration                                 : 1 h 45 min
  9. Bit rate                                 : 23.7 Mb/s
  10. Width                                    : 2 956 pixels
  11. Height                                   : 2 160 pixels
  12. Display aspect ratio                     : 4:3
  13. Frame rate mode                          : Constant
  14. Frame rate                               : 23.976 (24000/1001/189150) FPS
  15. Color space                              : YUV
  16. Chroma subsampling                       : 4:2:0
  17. Bit depth                                : 10 bits
  18. Bits/(Pixel*Frame)                       : 0.155
  19. Stream size                              : 17.4 GiB (97%)
  20. Language                                 : English
  21. Default                                  : Yes
  22. Forced                                   : No
  23. Audio
  24. ID                                       : 2
  25. Format                                   : E-AC-3 JOC
  26. Format/Info                              : Enhanced AC-3 with Joint Object Coding
  27. Commercial name                          : Dolby Digital Plus with Dolby Atmos
  28. Codec ID                                 : A_EAC3
  29. Duration                                 : 1 h 45 min
  30. Bit rate mode                            : Constant
  31. Bit rate                                 : 768 kb/s
  32. Channel(s)                               : 6 channels
  33. Channel layout                           : L R C LFE Ls Rs
  34. Sampling rate                            : 48.0 kHz
  35. Frame rate                               : 31.250 FPS (1536 SPF)
  36. Compression mode                         : Lossy
  37. Stream size                              : 578 MiB (3%)
  38. Language                                 : English
  39. Service kind                             : Complete Main
  40. Default                                  : Yes
  41. Forced                                   : No
  42. Complexity index                         : 16
  43. Number of dynamic objects                : 15
  44. Bed channel count                        : 1 channel
  45. Bed channel configuration                : LFE
  46. Text #1
  47. ID                                       : 3
  48. Format                                   : UTF-8
  49. Codec ID                                 : S_TEXT/UTF8
  50. Codec ID/Info                            : UTF-8 Plain Text
  51. Duration                                 : 1 h 39 min
  52. Bit rate                                 : 75 b/s
  53. Count of elements                        : 1346
  54. Stream size                              : 55.4 KiB (0%)
  55. Language                                 : English
  56. Default                                  : No
  57. Forced                                   : No
  58. Text #2
  59. ID                                       : 4
  60. Format                                   : UTF-8
  61. Codec ID                                 : S_TEXT/UTF8
  62. Codec ID/Info                            : UTF-8 Plain Text
  63. Duration                                 : 1 h 41 min
  64. Bit rate                                 : 80 b/s
  65. Count of elements                        : 1487
  66. Stream size                              : 60.0 KiB (0%)
  67. Title                                    : SDH
  68. Language                                 : English
  69. Default                                  : No
  70. Forced                                   : No
  71. Text #3
  72. ID                                       : 5
  73. Format                                   : UTF-8
  74. Codec ID                                 : S_TEXT/UTF8
  75. Codec ID/Info                            : UTF-8 Plain Text
  76. Duration                                 : 1 h 44 min
  77. Bit rate                                 : 95 b/s
  78. Count of elements                        : 1349
  79. Stream size                              : 73.3 KiB (0%)
  80. Language                                 : Arabic
  81. Default                                  : No
  82. Forced                                   : No
  83. Text #4
  84. ID                                       : 6
  85. Format                                   : UTF-8
  86. Codec ID                                 : S_TEXT/UTF8
  87. Codec ID/Info                            : UTF-8 Plain Text
  88. Duration                                 : 1 h 44 min
  89. Bit rate                                 : 112 b/s
  90. Count of elements                        : 1266
  91. Stream size                              : 86.3 KiB (0%)
  92. Language                                 : Bulgarian
  93. Default                                  : No
  94. Forced                                   : No
  95. Text #5
  96. ID                                       : 7
  97. Format                                   : UTF-8
  98. Codec ID                                 : S_TEXT/UTF8
  99. Codec ID/Info                            : UTF-8 Plain Text
  100. Duration                                 : 1 h 44 min
  101. Bit rate                                 : 67 b/s
  102. Count of elements                        : 1349
  103. Stream size                              : 51.7 KiB (0%)
  104. Title                                    : Simplified
  105. Language                                 : Chinese
  106. Default                                  : No
  107. Forced                                   : No
  108. Text #6
  109. ID                                       : 8
  110. Format                                   : UTF-8
  111. Codec ID                                 : S_TEXT/UTF8
  112. Codec ID/Info                            : UTF-8 Plain Text
  113. Duration                                 : 1 h 44 min
  114. Bit rate                                 : 61 b/s
  115. Count of elements                        : 1350
  116. Stream size                              : 47.0 KiB (0%)
  117. Title                                    : Traditional
  118. Language                                 : Chinese
  119. Default                                  : No
  120. Forced                                   : No
  121. Text #7
  122. ID                                       : 9
  123. Format                                   : UTF-8
  124. Codec ID                                 : S_TEXT/UTF8
  125. Codec ID/Info                            : UTF-8 Plain Text
  126. Duration                                 : 1 h 44 min
  127. Bit rate                                 : 62 b/s
  128. Count of elements                        : 1279
  129. Stream size                              : 48.0 KiB (0%)
  130. Language                                 : Czech
  131. Default                                  : No
  132. Forced                                   : No
  133. Text #8
  134. ID                                       : 10
  135. Format                                   : UTF-8
  136. Codec ID                                 : S_TEXT/UTF8
  137. Codec ID/Info                            : UTF-8 Plain Text
  138. Duration                                 : 1 h 44 min
  139. Bit rate                                 : 69 b/s
  140. Count of elements                        : 1281
  141. Stream size                              : 53.1 KiB (0%)
  142. Language                                 : Danish
  143. Default                                  : No
  144. Forced                                   : No
  145. Text #9
  146. ID                                       : 11
  147. Format                                   : UTF-8
  148. Codec ID                                 : S_TEXT/UTF8
  149. Codec ID/Info                            : UTF-8 Plain Text
  150. Duration                                 : 1 h 44 min
  151. Bit rate                                 : 71 b/s
  152. Count of elements                        : 1354
  153. Stream size                              : 54.7 KiB (0%)
  154. Language                                 : German
  155. Default                                  : No
  156. Forced                                   : No
  157. Text #10
  158. ID                                       : 12
  159. Format                                   : UTF-8
  160. Codec ID                                 : S_TEXT/UTF8
  161. Codec ID/Info                            : UTF-8 Plain Text
  162. Duration                                 : 1 h 44 min
  163. Bit rate                                 : 125 b/s
  164. Count of elements                        : 1336
  165. Stream size                              : 95.8 KiB (0%)
  166. Language                                 : Greek
  167. Default                                  : No
  168. Forced                                   : No
  169. Text #11
  170. ID                                       : 13
  171. Format                                   : UTF-8
  172. Codec ID                                 : S_TEXT/UTF8
  173. Codec ID/Info                            : UTF-8 Plain Text
  174. Duration                                 : 1 h 44 min
  175. Bit rate                                 : 70 b/s
  176. Count of elements                        : 1358
  177. Stream size                              : 53.6 KiB (0%)
  178. Title                                    : Latin American
  179. Language                                 : Spanish
  180. Default                                  : No
  181. Forced                                   : No
  182. Text #12
  183. ID                                       : 14
  184. Format                                   : UTF-8
  185. Codec ID                                 : S_TEXT/UTF8
  186. Codec ID/Info                            : UTF-8 Plain Text
  187. Duration                                 : 1 h 44 min
  188. Bit rate                                 : 70 b/s
  189. Count of elements                        : 1356
  190. Stream size                              : 53.7 KiB (0%)
  191. Language                                 : Spanish
  192. Default                                  : No
  193. Forced                                   : No
  194. Text #13
  195. ID                                       : 15
  196. Format                                   : UTF-8
  197. Codec ID                                 : S_TEXT/UTF8
  198. Codec ID/Info                            : UTF-8 Plain Text
  199. Duration                                 : 1 h 44 min
  200. Bit rate                                 : 63 b/s
  201. Count of elements                        : 1242
  202. Stream size                              : 48.7 KiB (0%)
  203. Language                                 : Estonian
  204. Default                                  : No
  205. Forced                                   : No
  206. Text #14
  207. ID                                       : 16
  208. Format                                   : UTF-8
  209. Codec ID                                 : S_TEXT/UTF8
  210. Codec ID/Info                            : UTF-8 Plain Text
  211. Duration                                 : 1 h 44 min
  212. Bit rate                                 : 67 b/s
  213. Count of elements                        : 1338
  214. Stream size                              : 51.6 KiB (0%)
  215. Language                                 : Finnish
  216. Default                                  : No
  217. Forced                                   : No
  218. Text #15
  219. ID                                       : 17
  220. Format                                   : UTF-8
  221. Codec ID                                 : S_TEXT/UTF8
  222. Codec ID/Info                            : UTF-8 Plain Text
  223. Duration                                 : 1 h 44 min
  224. Bit rate                                 : 74 b/s
  225. Count of elements                        : 1539
  226. Stream size                              : 56.7 KiB (0%)
  227. Title                                    : Canadian
  228. Language                                 : French
  229. Default                                  : No
  230. Forced                                   : No
  231. Text #16
  232. ID                                       : 18
  233. Format                                   : UTF-8
  234. Codec ID                                 : S_TEXT/UTF8
  235. Codec ID/Info                            : UTF-8 Plain Text
  236. Duration                                 : 1 h 44 min
  237. Bit rate                                 : 74 b/s
  238. Count of elements                        : 1539
  239. Stream size                              : 56.7 KiB (0%)
  240. Language                                 : French
  241. Default                                  : No
  242. Forced                                   : No
  243. Text #17
  244. ID                                       : 19
  245. Format                                   : UTF-8
  246. Codec ID                                 : S_TEXT/UTF8
  247. Codec ID/Info                            : UTF-8 Plain Text
  248. Duration                                 : 1 h 44 min
  249. Bit rate                                 : 89 b/s
  250. Count of elements                        : 1350
  251. Stream size                              : 68.3 KiB (0%)
  252. Language                                 : Hebrew
  253. Default                                  : No
  254. Forced                                   : No
  255. Text #18
  256. ID                                       : 20
  257. Format                                   : UTF-8
  258. Codec ID                                 : S_TEXT/UTF8
  259. Codec ID/Info                            : UTF-8 Plain Text
  260. Duration                                 : 1 h 44 min
  261. Bit rate                                 : 209 b/s
  262. Count of elements                        : 1350
  263. Stream size                              : 160 KiB (0%)
  264. Language                                 : Hindi
  265. Default                                  : No
  266. Forced                                   : No
  267. Text #19
  268. ID                                       : 21
  269. Format                                   : UTF-8
  270. Codec ID                                 : S_TEXT/UTF8
  271. Codec ID/Info                            : UTF-8 Plain Text
  272. Duration                                 : 1 h 44 min
  273. Bit rate                                 : 72 b/s
  274. Count of elements                        : 1312
  275. Stream size                              : 55.4 KiB (0%)
  276. Language                                 : Hungarian
  277. Default                                  : No
  278. Forced                                   : No
  279. Text #20
  280. ID                                       : 22
  281. Format                                   : UTF-8
  282. Codec ID                                 : S_TEXT/UTF8
  283. Codec ID/Info                            : UTF-8 Plain Text
  284. Duration                                 : 1 h 44 min
  285. Bit rate                                 : 76 b/s
  286. Count of elements                        : 1350
  287. Stream size                              : 58.5 KiB (0%)
  288. Language                                 : Indonesian
  289. Default                                  : No
  290. Forced                                   : No
  291. Text #21
  292. ID                                       : 23
  293. Format                                   : UTF-8
  294. Codec ID                                 : S_TEXT/UTF8
  295. Codec ID/Info                            : UTF-8 Plain Text
  296. Duration                                 : 1 h 44 min
  297. Bit rate                                 : 75 b/s
  298. Count of elements                        : 1352
  299. Stream size                              : 57.4 KiB (0%)
  300. Language                                 : Italian
  301. Default                                  : No
  302. Forced                                   : No
  303. Text #22
  304. ID                                       : 24
  305. Format                                   : UTF-8
  306. Codec ID                                 : S_TEXT/UTF8
  307. Codec ID/Info                            : UTF-8 Plain Text
  308. Duration                                 : 1 h 44 min
  309. Bit rate                                 : 65 b/s
  310. Count of elements                        : 1202
  311. Stream size                              : 50.2 KiB (0%)
  312. Language                                 : Japanese
  313. Default                                  : No
  314. Forced                                   : No
  315. Text #23
  316. ID                                       : 25
  317. Format                                   : UTF-8
  318. Codec ID                                 : S_TEXT/UTF8
  319. Codec ID/Info                            : UTF-8 Plain Text
  320. Duration                                 : 1 h 44 min
  321. Bit rate                                 : 82 b/s
  322. Count of elements                        : 1350
  323. Stream size                              : 63.1 KiB (0%)
  324. Language                                 : Korean
  325. Default                                  : No
  326. Forced                                   : No
  327. Text #24
  328. ID                                       : 26
  329. Format                                   : UTF-8
  330. Codec ID                                 : S_TEXT/UTF8
  331. Codec ID/Info                            : UTF-8 Plain Text
  332. Duration                                 : 1 h 44 min
  333. Bit rate                                 : 72 b/s
  334. Count of elements                        : 1349
  335. Stream size                              : 55.2 KiB (0%)
  336. Language                                 : Lithuanian
  337. Default                                  : No
  338. Forced                                   : No
  339. Text #25
  340. ID                                       : 27
  341. Format                                   : UTF-8
  342. Codec ID                                 : S_TEXT/UTF8
  343. Codec ID/Info                            : UTF-8 Plain Text
  344. Duration                                 : 1 h 44 min
  345. Bit rate                                 : 71 b/s
  346. Count of elements                        : 1336
  347. Stream size                              : 54.4 KiB (0%)
  348. Language                                 : Latvian
  349. Default                                  : No
  350. Forced                                   : No
  351. Text #26
  352. ID                                       : 28
  353. Format                                   : UTF-8
  354. Codec ID                                 : S_TEXT/UTF8
  355. Codec ID/Info                            : UTF-8 Plain Text
  356. Duration                                 : 1 h 44 min
  357. Bit rate                                 : 70 b/s
  358. Count of elements                        : 1350
  359. Stream size                              : 54.0 KiB (0%)
  360. Language                                 : Malay
  361. Default                                  : No
  362. Forced                                   : No
  363. Text #27
  364. ID                                       : 29
  365. Format                                   : UTF-8
  366. Codec ID                                 : S_TEXT/UTF8
  367. Codec ID/Info                            : UTF-8 Plain Text
  368. Duration                                 : 1 h 44 min
  369. Bit rate                                 : 68 b/s
  370. Count of elements                        : 1211
  371. Stream size                              : 52.0 KiB (0%)
  372. Language                                 : Dutch
  373. Default                                  : No
  374. Forced                                   : No
  375. Text #28
  376. ID                                       : 30
  377. Format                                   : UTF-8
  378. Codec ID                                 : S_TEXT/UTF8
  379. Codec ID/Info                            : UTF-8 Plain Text
  380. Duration                                 : 1 h 44 min
  381. Bit rate                                 : 65 b/s
  382. Count of elements                        : 1305
  383. Stream size                              : 50.4 KiB (0%)
  384. Language                                 : Norwegian
  385. Default                                  : No
  386. Forced                                   : No
  387. Text #29
  388. ID                                       : 31
  389. Format                                   : UTF-8
  390. Codec ID                                 : S_TEXT/UTF8
  391. Codec ID/Info                            : UTF-8 Plain Text
  392. Duration                                 : 1 h 44 min
  393. Bit rate                                 : 71 b/s
  394. Count of elements                        : 1350
  395. Stream size                              : 55.0 KiB (0%)
  396. Language                                 : Polish
  397. Default                                  : No
  398. Forced                                   : No
  399. Text #30
  400. ID                                       : 32
  401. Format                                   : UTF-8
  402. Codec ID                                 : S_TEXT/UTF8
  403. Codec ID/Info                            : UTF-8 Plain Text
  404. Duration                                 : 1 h 44 min
  405. Bit rate                                 : 73 b/s
  406. Count of elements                        : 1351
  407. Stream size                              : 55.9 KiB (0%)
  408. Language                                 : Portuguese
  409. Default                                  : No
  410. Forced                                   : No
  411. Text #31
  412. ID                                       : 33
  413. Format                                   : UTF-8
  414. Codec ID                                 : S_TEXT/UTF8
  415. Codec ID/Info                            : UTF-8 Plain Text
  416. Duration                                 : 1 h 44 min
  417. Bit rate                                 : 73 b/s
  418. Count of elements                        : 1287
  419. Stream size                              : 56.4 KiB (0%)
  420. Title                                    : Brazilian
  421. Language                                 : Portuguese
  422. Default                                  : No
  423. Forced                                   : No
  424. Text #32
  425. ID                                       : 34
  426. Format                                   : UTF-8
  427. Codec ID                                 : S_TEXT/UTF8
  428. Codec ID/Info                            : UTF-8 Plain Text
  429. Duration                                 : 1 h 44 min
  430. Bit rate                                 : 106 b/s
  431. Count of elements                        : 1369
  432. Stream size                              : 81.1 KiB (0%)
  433. Language                                 : Russian
  434. Default                                  : No
  435. Forced                                   : No
  436. Text #33
  437. ID                                       : 35
  438. Format                                   : UTF-8
  439. Codec ID                                 : S_TEXT/UTF8
  440. Codec ID/Info                            : UTF-8 Plain Text
  441. Duration                                 : 1 h 44 min
  442. Bit rate                                 : 65 b/s
  443. Count of elements                        : 1342
  444. Stream size                              : 49.8 KiB (0%)
  445. Language                                 : Slovak
  446. Default                                  : No
  447. Forced                                   : No
  448. Text #34
  449. ID                                       : 36
  450. Format                                   : UTF-8
  451. Codec ID                                 : S_TEXT/UTF8
  452. Codec ID/Info                            : UTF-8 Plain Text
  453. Duration                                 : 1 h 44 min
  454. Bit rate                                 : 62 b/s
  455. Count of elements                        : 1173
  456. Stream size                              : 47.6 KiB (0%)
  457. Language                                 : Slovenian
  458. Default                                  : No
  459. Forced                                   : No
  460. Text #35
  461. ID                                       : 37
  462. Format                                   : UTF-8
  463. Codec ID                                 : S_TEXT/UTF8
  464. Codec ID/Info                            : UTF-8 Plain Text
  465. Duration                                 : 1 h 44 min
  466. Bit rate                                 : 65 b/s
  467. Count of elements                        : 1267
  468. Stream size                              : 49.9 KiB (0%)
  469. Language                                 : Swedish
  470. Default                                  : No
  471. Forced                                   : No
  472. Text #36
  473. ID                                       : 38
  474. Format                                   : UTF-8
  475. Codec ID                                 : S_TEXT/UTF8
  476. Codec ID/Info                            : UTF-8 Plain Text
  477. Duration                                 : 1 h 44 min
  478. Bit rate                                 : 252 b/s
  479. Count of elements                        : 1350
  480. Stream size                              : 193 KiB (0%)
  481. Language                                 : Tamil
  482. Default                                  : No
  483. Forced                                   : No
  484. Text #37
  485. ID                                       : 39
  486. Format                                   : UTF-8
  487. Codec ID                                 : S_TEXT/UTF8
  488. Codec ID/Info                            : UTF-8 Plain Text
  489. Duration                                 : 1 h 44 min
  490. Bit rate                                 : 207 b/s
  491. Count of elements                        : 1350
  492. Stream size                              : 159 KiB (0%)
  493. Language                                 : Telugu
  494. Default                                  : No
  495. Forced                                   : No
  496. Text #38
  497. ID                                       : 40
  498. Format                                   : UTF-8
  499. Codec ID                                 : S_TEXT/UTF8
  500. Codec ID/Info                            : UTF-8 Plain Text
  501. Duration                                 : 1 h 44 min
  502. Bit rate                                 : 183 b/s
  503. Count of elements                        : 1349
  504. Stream size                              : 140 KiB (0%)
  505. Language                                 : Thai
  506. Default                                  : No
  507. Forced                                   : No
  508. Text #39
  509. ID                                       : 41
  510. Format                                   : UTF-8
  511. Codec ID                                 : S_TEXT/UTF8
  512. Codec ID/Info                            : UTF-8 Plain Text
  513. Duration                                 : 1 h 44 min
  514. Bit rate                                 : 75 b/s
  515. Count of elements                        : 1349
  516. Stream size                              : 57.7 KiB (0%)
  517. Language                                 : Turkish
  518. Default                                  : No
  519. Forced                                   : No
  520. Text #40
  521. ID                                       : 42
  522. Format                                   : UTF-8
  523. Codec ID                                 : S_TEXT/UTF8
  524. Codec ID/Info                            : UTF-8 Plain Text
  525. Duration                                 : 1 h 44 min
  526. Bit rate                                 : 106 b/s
  527. Count of elements                        : 1349
  528. Stream size                              : 81.1 KiB (0%)
  529. Language                                 : Ukrainian
  530. Default                                  : No
  531. Forced                                   : No
  532. Text #41
  533. ID                                       : 43
  534. Format                                   : UTF-8
  535. Codec ID                                 : S_TEXT/UTF8
  536. Codec ID/Info                            : UTF-8 Plain Text
  537. Duration                                 : 1 h 44 min
  538. Bit rate                                 : 92 b/s
  539. Count of elements                        : 1351
  540. Stream size                              : 70.8 KiB (0%)
  541. Language                                 : Vietnamese
  542. Default                                  : No
  543. Forced                                   : No
  544. Text #42
  545. ID                                       : 44
  546. Format                                   : UTF-8
  547. Codec ID                                 : S_TEXT/UTF8
  548. Codec ID/Info                            : UTF-8 Plain Text
  549. Duration                                 : 1 h 44 min
  550. Bit rate                                 : 66 b/s
  551. Count of elements                        : 1350
  552. Stream size                              : 50.8 KiB (0%)
  553. Title                                    : Cantonese
  554. Language                                 : Chinese
  555. Default                                  : No
  556. Forced                                   : No
复制代码






                                       
                                       

                                       
                                       
                                       




回复

使用道具 举报

蓝光币
651
发表于 2022-1-16 11:29:32 | 显示全部楼层
不错,收下了。
回复 支持 反对

使用道具 举报

懒得打字嘛,点击右侧快捷回复 【右侧内容,后台自定义】
您需要登录后才可以回帖 登录 | 立即加入

本版积分规则

Archiver|小黑屋| 蓝光电影网 |网站地图

Copyright © 2021 Comsenz Inc. Powered by 蓝光电影网

蓝光电影网

本站内容由用户自主分享和转载自互联网,转载目的在于传递更多信息,并不代表本网赞同其观点和对其真实性负责。

如有侵权、违反国家法律政策行为,请联系我们,我们会第一时间及时清除和处理!

举报反馈邮箱:[email protected]

快速回复 返回顶部 返回列表