找回密码

蓝光电影网

查看: 150|回复: 1

[UHD.HEVC] 大逃亡/第三集中营 The.Great.Escape.1963.2160p.BluRay.REMUX.HEVC.SDR.DTS-HD.MA.5.1-FGT 86.03GB

[复制链接]
蓝光币
730
发表于 2022-1-15 09:29:56 | 显示全部楼层 |阅读模式


◎译  名 大流亡/第三集合营(台)/逢凶化吉/成功大流亡/成功流亡/龙虎榜(港)
◎片  名 The Great Escape
◎年  代 1963
◎产  地 美国
◎类  别 剧情 / 历史 / 冒险
◎语  言 英语,德语,法语,俄语,西班牙语
◎上映日期 1963-07-04(美国)
◎豆瓣评分 8.3/10 from 8310 users
◎豆瓣链接 https://movie.douban.com/subject/1294947/
◎片  长 172分钟
◎导  演 约翰·斯特奇斯 John Sturges
◎编  剧 保罗·布里克西尔 Paul Brickhill / 詹姆斯·克拉韦尔 James Clavell / 威廉·赖利·伯内特 W.R. Burnett
◎主  演 史蒂夫·麦奎因 Steve McQueen
       詹姆斯·加纳 James Garner
       理查德·阿滕伯勒 Richard Attenborough
       詹姆斯·唐纳德 James Donald
       查尔斯·布朗森 Charles Bronson
       唐纳德·普利森斯 Donald Pleasence
       詹姆斯·柯本 James Coburn
       汉斯·海西默 Hannes Messemer
       大卫·麦考姆 David McCallum
       戈登·杰克逊 Gordon Jackson
       约翰·莱顿 John Leyton
       Angus Lennie Angus Lennie
       奈杰尔·斯托克 Nigel Stock
       Robert Graf Robert Graf
       裘德·泰勒 Jud Taylor
       Hans Reiser Hans Reiser
       哈里·里鲍尔 Harry Riebauer
       威廉·拉塞尔 William Russell
       Robert Freitag Robert Freitag
       Ulrich Beiger Ulrich Beiger
       乔治·迈克尔 George Mikell
       劳伦斯·蒙田 Lawrence Montaigne
       Til Kiwe Til Kiwe
       海因茨·韦斯 Heinz Weiss
       汤姆·亚当斯 Tom Adams
       卡尔-奥托·阿伯提 Karl-Otto Alberty
       罗伯特·格拉夫 Robert Graf
◎简  介


  二战时代,德军的战俘营里,每小我都在渴望着自在。美国人希尔(史蒂夫?麦奎因 Steve McQueen 饰)在进入战俘营的第一天起,就一向计划着逃狱。虽然他的十屡次逃窜都以失利了结,但希尔从未放弃。此次,希尔和英国军官罗杰计划奥秘挖掘地道率领250人一路逃狱。一切人都进献出了自己的一分力配合此次计划,有人专门负责建造大师逃窜后需要穿着的平民打扮、有人负责做假证件、还有人负责储备食品等等。但是就在他们的地道大功乐成那天,地道却被德军发现了。逃窜计划的日期一天天邻近,希尔他们又起头新一轮的挖掘工作。
◎获奖情况
  第36届奥斯卡金像奖 ?(1964)
  最好剪辑(提名) 费里斯·韦伯斯特
  
  第21届金球奖 ?(1964)
  电影类最好剧情片(提名)
  1. Video
  2. ID                                       : 1
  3. ID in the original source medium         : 4113 (0x1011)
  4. Format                                   : HEVC
  5. Format/Info                              : High Efficiency Video Coding
  6. Format profile                           : Main [email protected]@High
  7. Codec ID                                 : V_MPEGH/ISO/HEVC
  8. Duration                                 : 2 h 52 min
  9. Bit rate                                 : 64.0 Mb/s
  10. Width                                    : 3 840 pixels
  11. Height                                   : 2 160 pixels
  12. Display aspect ratio                     : 16:9
  13. Frame rate mode                          : Constant
  14. Frame rate                               : 23.976 (24000/1001/189150) FPS
  15. Color space                              : YUV
  16. Chroma subsampling                       : 4:2:0 (Type 2)
  17. Bit depth                                : 10 bits
  18. Bits/(Pixel*Frame)                       : 0.322
  19. Stream size                              : 77.0 GiB (89%)
  20. Writing library                          : ATEME Titan File 3.9.7 (4.9.7.0)        
  21. Language                                 : English
  22. Default                                  : No
  23. Forced                                   : No
  24. Color range                              : Limited
  25. Color primaries                          : BT.709
  26. Transfer characteristics                 : BT.709
  27. Matrix coefficients                      : BT.709
  28. Original source medium                   : Blu-ray
  29. Audio #1
  30. ID                                       : 2
  31. ID in the original source medium         : 4352 (0x1100)
  32. Format                                   : DTS XLL
  33. Format/Info                              : Digital Theater Systems
  34. Commercial name                          : DTS-HD Master Audio
  35. Codec ID                                 : A_DTS
  36. Duration                                 : 2 h 52 min
  37. Bit rate mode                            : Variable
  38. Bit rate                                 : 1 891 kb/s
  39. Channel(s)                               : 6 channels
  40. Channel layout                           : C L R Ls Rs LFE
  41. Sampling rate                            : 48.0 kHz
  42. Frame rate                               : 93.750 FPS (512 SPF)
  43. Bit depth                                : 24 bits
  44. Compression mode                         : Lossless
  45. Stream size                              : 2.28 GiB (3%)
  46. Title                                    : DTS-HD MA 5.1
  47. Language                                 : English
  48. Default                                  : Yes
  49. Forced                                   : No
  50. Original source medium                   : Blu-ray
  51. Audio #2
  52. ID                                       : 3
  53. Format                                   : AC-3
  54. Format/Info                              : Audio Coding 3
  55. Commercial name                          : Dolby Digital
  56. Codec ID                                 : A_AC3
  57. Duration                                 : 2 h 52 min
  58. Bit rate mode                            : Constant
  59. Bit rate                                 : 640 kb/s
  60. Channel(s)                               : 6 channels
  61. Channel layout                           : L R C LFE Ls Rs
  62. Sampling rate                            : 48.0 kHz
  63. Frame rate                               : 31.250 FPS (1536 SPF)
  64. Compression mode                         : Lossy
  65. Stream size                              : 788 MiB (1%)
  66. Title                                    : DD 5.1
  67. Language                                 : English
  68. Service kind                             : Complete Main
  69. Default                                  : No
  70. Forced                                   : No
  71. Audio #3
  72. ID                                       : 4
  73. ID in the original source medium         : 4353 (0x1101)
  74. Format                                   : DTS XLL
  75. Format/Info                              : Digital Theater Systems
  76. Commercial name                          : DTS-HD Master Audio
  77. Codec ID                                 : A_DTS
  78. Duration                                 : 2 h 52 min
  79. Bit rate mode                            : Variable
  80. Bit rate                                 : 1 835 kb/s
  81. Channel(s)                               : 2 channels
  82. Channel layout                           : L R
  83. Sampling rate                            : 48.0 kHz
  84. Frame rate                               : 93.750 FPS (512 SPF)
  85. Bit depth                                : 24 bits
  86. Compression mode                         : Lossless
  87. Stream size                              : 2.21 GiB (3%)
  88. Title                                    : DTS-HD MA 2.0
  89. Language                                 : English
  90. Default                                  : No
  91. Forced                                   : No
  92. Original source medium                   : Blu-ray
  93. Audio #4
  94. ID                                       : 5
  95. ID in the original source medium         : 4354 (0x1102)
  96. Format                                   : DTS XLL
  97. Format/Info                              : Digital Theater Systems
  98. Commercial name                          : DTS-HD Master Audio
  99. Codec ID                                 : A_DTS
  100. Duration                                 : 2 h 52 min
  101. Bit rate mode                            : Variable
  102. Bit rate                                 : 1 570 kb/s
  103. Channel(s)                               : 2 channels
  104. Channel layout                           : L R
  105. Sampling rate                            : 48.0 kHz
  106. Frame rate                               : 93.750 FPS (512 SPF)
  107. Bit depth                                : 16 bits
  108. Compression mode                         : Lossless
  109. Stream size                              : 1.89 GiB (2%)
  110. Title                                    : DTS-HD MA 2.0
  111. Language                                 : English
  112. Default                                  : No
  113. Forced                                   : No
  114. Original source medium                   : Blu-ray
  115. Audio #5
  116. ID                                       : 6
  117. ID in the original source medium         : 4355 (0x1103)
  118. Format                                   : DTS XLL
  119. Format/Info                              : Digital Theater Systems
  120. Commercial name                          : DTS-HD Master Audio
  121. Codec ID                                 : A_DTS
  122. Duration                                 : 2 h 52 min
  123. Bit rate mode                            : Variable
  124. Bit rate                                 : 1 558 kb/s
  125. Channel(s)                               : 2 channels
  126. Channel layout                           : L R
  127. Sampling rate                            : 48.0 kHz
  128. Frame rate                               : 93.750 FPS (512 SPF)
  129. Bit depth                                : 16 bits
  130. Compression mode                         : Lossless
  131. Stream size                              : 1.87 GiB (2%)
  132. Title                                    : DTS-HD MA 2.0
  133. Language                                 : English
  134. Default                                  : No
  135. Forced                                   : No
  136. Original source medium                   : Blu-ray
  137. Text #1
  138. ID                                       : 7
  139. Format                                   : UTF-8
  140. Codec ID                                 : S_TEXT/UTF8
  141. Codec ID/Info                            : UTF-8 Plain Text
  142. Duration                                 : 2 h 45 min
  143. Bit rate                                 : 38 b/s
  144. Count of elements                        : 1362
  145. Stream size                              : 47.1 KiB (0%)
  146. Language                                 : English
  147. Default                                  : Yes
  148. Forced                                   : No
  149. Text #2
  150. ID                                       : 8
  151. ID in the original source medium         : 4608 (0x1200)
  152. Format                                   : PGS
  153. Muxing mode                              : zlib
  154. Codec ID                                 : S_HDMV/PGS
  155. Codec ID/Info                            : Picture based subtitle format used on BDs/HD-DVDs
  156. Duration                                 : 2 h 45 min
  157. Bit rate                                 : 19.4 kb/s
  158. Count of elements                        : 2808
  159. Stream size                              : 22.9 MiB (0%)
  160. Language                                 : English
  161. Default                                  : No
  162. Forced                                   : No
  163. Original source medium                   : Blu-ray
  164. Menu
  165. 00:00:00.000                             : en:Chapter 01
  166. 00:06:58.418                             : en:Chapter 02
  167. 00:22:12.331                             : en:Chapter 03
  168. 00:44:09.647                             : en:Chapter 04
  169. 01:02:12.729                             : en:Chapter 05
  170. 01:25:38.133                             : en:Chapter 06
  171. 01:44:45.279                             : en:Chapter 07
  172. 02:02:54.367                             : en:Chapter 08
  173. 02:27:15.827                             : en:Chapter 09
  174. 02:40:30.621                             : en:Chapter 10
  175. 02:52:13.323                             : en:Chapter 11
复制代码




                                       
                                       

                                       
                                       
                                       




回复

使用道具 举报

蓝光币
76
发表于 5 天前 | 显示全部楼层

这个帖子不回对不起自己!我想我是一天也不能离开蓝光电影网。
回复 支持 反对

使用道具 举报

懒得打字嘛,点击右侧快捷回复 【右侧内容,后台自定义】
您需要登录后才可以回帖 登录 | 立即加入

本版积分规则

Archiver|小黑屋| 蓝光电影网 |网站地图

Copyright © 2021 Comsenz Inc. Powered by 蓝光电影网

蓝光电影网

本站内容由用户自主分享和转载自互联网,转载目的在于传递更多信息,并不代表本网赞同其观点和对其真实性负责。

如有侵权、违反国家法律政策行为,请联系我们,我们会第一时间及时清除和处理!

举报反馈邮箱:[email protected]

快速回复 返回顶部 返回列表