找回密码

蓝光电影网

查看: 628|回复: 0

[2014][犯罪][中国香港][第七谎言][REMUX][1080P-19.65G][MKV]TrueHD5.1

[复制链接]
蓝光币
382
发表于 2015-9-12 18:40:11 | 显示全部楼层 |阅读模式

[2014][犯罪][中国香港][第七假话][REMUX][1080P-19.65G][MKV]TrueHD5.1
215458a8ooj07bk76d0dji.jpg

◎影片根基信息
巨细: 19.65G
说话: 汉语普通话 / 粤语 / 英语
上映日期: 2015-03-27(中国大陆) / 2014-10-30(香港)
片长: 90分钟(中国大陆) / 94分钟(香港)
别名: The Seventh Lie
清楚度: 1080P
视频: MKV
豆瓣评分: 4.0
导演: 孔令政
编剧: 孔令政
主演: 郑中基 / 何超仪 / 罗仲谦 / 曾佩瑜 / 许绍雄 / 更多...
范例: 悬疑 / 犯罪
制片国家/地域: 香港
影片: The.Seventh.Lie.2014.1080p.BluRay.REMUX.AVC.TrueHD.5.1-RARBG

◎剧情简介
       阿桑(罗仲谦 饰)是好友Terrance 家的专属司机;概况上循规蹈矩的他,却具有不为人知的奥秘。他一向心仪Terrance 的妻子Julianne(曾佩瑜 饰)。
  Bellhop(郑中基 饰)在酒店房间内吃客人的冷饭残羹、穿客人着过的浴袍,躺上客人的床铺,只因他与妻子之间豪情的破裂深深的刺激到了他。
  行将出嫁的新娘(蔡颖恩 饰)却忽然逃仳离礼。她想晓得谁才是她最爱的人。她听着预言家(林德信 饰)诉说发生在这个公园女厕内,一段被忘记的情杀故事……
  放暴利的包租公(许绍雄 饰)和包租婆,包租公因有外遇,在这公厕内,居然想杀死包租婆……
  四段豪情,看似无关,但却环环相扣,缘由在于“第七假话”的存在。忘记与丢失的角度,日与夜,黑与白,是非颠倒,感情错配。每个撒谎的人都避不开自己的假话。这个早晨,他们要承受一切结果。
-------------------------

  1. Video
  2. ID                                       : 1
  3. Format                                   : AVC
  4. Format/Info                              : Advanced Video Codec
  5. Format profile                           : [email protected]
  6. Format settings, CABAC                   : Yes
  7. Format settings, ReFrames                : 4 frames
  8. Format settings, GOP                     : M=3, N=24
  9. Codec ID                                 : V_MPEG4/ISO/AVC
  10. Duration                                 : 1h 33mn
  11. Bit rate mode                            : Variable
  12. Maximum bit rate                         : 30.0 Mbps
  13. Width                                    : 1 920 pixels
  14. Height                                   : 1 080 pixels
  15. Display aspect ratio                     : 16:9
  16. Frame rate mode                          : Constant
  17. Frame rate                               : 24.000 fps
  18. Standard                                 : NTSC
  19. Color space                              : YUV
  20. Chroma subsampling                       : 4:2:0
  21. Bit depth                                : 8 bits
  22. Scan type                                : Progressive
  23. Language                                 : English
  24. Default                                  : No
  25. Forced                                   : No
  26. Color primaries                          : BT.709
  27. Transfer characteristics                 : BT.709
  28. Matrix coefficients                      : BT.709
  29. Color range                              : Limited

  30. Audio #1
  31. ID                                       : 2
  32. Format                                   : TrueHD
  33. Codec ID                                 : A_TRUEHD
  34. Duration                                 : 1h 33mn
  35. Bit rate mode                            : Variable
  36. Maximum bit rate                         : 4 284 Kbps
  37. Channel(s)                               : 6 channels
  38. Channel positions                        : Front: L C R, Side: L R, LFE
  39. Sampling rate                            : 96.0 KHz
  40. Bit depth                                : 24 bits
  41. Compression mode                         : Lossless
  42. Delay relative to video                  : 2s 0ms
  43. Title                                    : The.Seventh.Lie.2014.1080p.BluRay.REMUX.AVC.TrueHD.5.1-RARBG
  44. Language                                 : Chinese
  45. Default                                  : Yes
  46. Forced                                   : No

  47. Audio #2
  48. ID                                       : 3
  49. Format                                   : AC-3
  50. Format/Info                              : Audio Coding 3
  51. Mode extension                           : CM (complete main)
  52. Format settings, Endianness              : Big
  53. Codec ID                                 : A_AC3
  54. Duration                                 : 1h 33mn
  55. Bit rate mode                            : Constant
  56. Bit rate                                 : 640 Kbps
  57. Channel(s)                               : 6 channels
  58. Channel positions                        : Front: L C R, Side: L R, LFE
  59. Sampling rate                            : 48.0 KHz
  60. Bit depth                                : 16 bits
  61. Compression mode                         : Lossy
  62. Delay relative to video                  : 2s 0ms
  63. Stream size                              : 430 MiB (2%)
  64. Title                                    : The.Seventh.Lie.2014.1080p.BluRay.REMUX.AVC.TrueHD.5.1-RARBG
  65. Language                                 : Chinese
  66. Default                                  : No
  67. Forced                                   : No

  68. Audio #3
  69. ID                                       : 4
  70. Format                                   : AC-3
  71. Format/Info                              : Audio Coding 3
  72. Mode extension                           : CM (complete main)
  73. Format settings, Endianness              : Big
  74. Codec ID                                 : A_AC3
  75. Duration                                 : 1h 33mn
  76. Bit rate mode                            : Constant
  77. Bit rate                                 : 640 Kbps
  78. Channel(s)                               : 6 channels
  79. Channel positions                        : Front: L C R, Side: L R, LFE
  80. Sampling rate                            : 48.0 KHz
  81. Bit depth                                : 16 bits
  82. Compression mode                         : Lossy
  83. Delay relative to video                  : 2s 0ms
  84. Stream size                              : 430 MiB (2%)
  85. Title                                    : The.Seventh.Lie.2014.1080p.BluRay.REMUX.AVC.TrueHD.5.1-RARBG
  86. Language                                 : Chinese
  87. Default                                  : No
  88. Forced                                   : No
复制代码

复制代码

-------------------------
◎出色剧照
215453s3nk8mzqdzzgqznk.jpg
215455zvbp3psxocxbbp3s.jpg
215454kxxxgiamixvgx2gi.jpg
215456bjlyy9m80jwwmii9.jpg

-------------------------
[以上高清电影剧照来自互联网,不代表此片高清剧照]
慎重声明:本站供给的一切高清电影作品均是在网上汇集,任何触及贸易盈利目标均不得利用,否则发生的一切结果将由您自己承当!本站将差池本站的任何内容负任何法令义务!该下载内容仅做宽带测试利用,请鄙人载后24小时内删除。请采办正
版!
-------------------------
◎种子下载地址
旅客,假如您要检察本帖隐藏内容请答复
回复

使用道具 举报

懒得打字嘛,点击右侧快捷回复 【右侧内容,后台自定义】
您需要登录后才可以回帖 登录 | 立即加入

本版积分规则

Archiver|小黑屋| 蓝光电影网 |网站地图

Copyright © 2021 Comsenz Inc. Powered by 蓝光电影网

蓝光电影网

本站内容由用户自主分享和转载自互联网,转载目的在于传递更多信息,并不代表本网赞同其观点和对其真实性负责。

如有侵权、违反国家法律政策行为,请联系我们,我们会第一时间及时清除和处理!

举报反馈邮箱:[email protected]

快速回复 返回顶部 返回列表