找回密码

蓝光电影网

查看: 3479|回复: 31

[2007][美国][奇幻][魔幻罗盘/黑暗物质:黄金罗盘/黑暗元素][1080P-9.69G][MKV]DTS

  [复制链接]
蓝光币
382
发表于 2015-9-12 18:50:10 | 显示全部楼层 |阅读模式

[2007][美国][奇异][魔幻罗盘/黑暗物资:黄金罗盘/黑暗元素][1080P-9.69G][MKV]DTS
125421zpmqqk6ydqqoolgk.jpg

◎影片根基信息
巨细: 9.69G
清楚度: 1080P
视频: MKV
豆瓣评分: 6.3
导演: 克里斯·韦兹
编剧: 克里斯·韦兹 / 菲利普·普尔曼
主演: 妮可·基德曼 / 丹尼尔·克雷格 / 达科塔·布鲁·理查兹 / Ben Walker / 伊娃·格林 / 更多...
范例: 家庭 / 奇异 / 冒险
制片国家/地域: 美国 / 英国
说话: 英语 / 冰岛语 / 俄语 / 法语
上映日期: 2007-12-05(英国)
片长: 113 分钟
别名: 魔幻罗盘(港) / 黑暗物资:黄金罗盘 / 黑暗元素
影片: The.Golden.Compass.2007.1080p.BluRay.x264.DTS-FGT

◎剧情简介
       故事发生在一个和我们的地球很类似的天下里,那边人们的灵魂酿成灵神跟从自己。莉拉自幼(Dakota Blue Richards 饰)跟从身为约旦大黉舍长的叔叔一路生活,她热情、勇敢且富有正义心。一天科尔特夫人(nicole kidman 饰)要到北方去,希望莉拉能陪伴身旁。猎奇的莉拉高兴地答应。临行前叔叔交给她一个黄金罗盘,告诉她天下上只要一小我能读懂。莉拉从黄金罗盘中不但能获得所问题目标答案,还领会到了自己的身世之谜。这一路上,科尔特夫人行为诡异,莉拉还发现在特尔特夫人的一份名单上鲜明写着自己失落朋友罗杰的名字!罗杰和其他孩子一样,被诱拐到极北之地成为科学实验品。莉拉找到机会逃窜出来,自己动身前往拯救罗杰……
-------------------------

  1. Video
  2. ID                                       : 1
  3. Format                                   : AVC
  4. Format/Info                              : Advanced Video Codec
  5. Format profile                           : [email protected]
  6. Format settings, CABAC                   : Yes
  7. Format settings, ReFrames                : 5 frames
  8. Codec ID                                 : V_MPEG4/ISO/AVC
  9. Duration                                 : 1h 53mn
  10. Bit rate                                 : 10.2 Mbps
  11. Width                                    : 1 920 pixels
  12. Height                                   : 800 pixels
  13. Display aspect ratio                     : 2.40:1
  14. Frame rate mode                          : Constant
  15. Frame rate                               : 23.976 fps
  16. Color space                              : YUV
  17. Chroma subsampling                       : 4:2:0
  18. Bit depth                                : 8 bits
  19. Scan type                                : Progressive
  20. Bits/(Pixel*Frame)                       : 0.278
  21. Stream size                              : 8.10 GiB (84%)
  22. Writing library                          : x264 core 118 r2085 8a62835
  23. Encoding settings                        : cabac=1 / ref=5 / deblock=1:-3:-3 / analyse=0x3:0x113 / me=tesa / subme=11 / psy=1 / psy_rd=1.00:0.00 / mixed_ref=1 / me_range=16 / chroma_me=1 / trellis=2 / 8x8dct=1 / cqm=0 / deadzone=21,11 / fast_pskip=0 / chroma_qp_offset=-2 / threads=12 / sliced_threads=0 / nr=0 / decimate=0 / interlaced=0 / bluray_compat=0 / constrained_intra=0 / bframes=6 / b_pyramid=2 / b_adapt=2 / b_bias=0 / direct=3 / weightb=1 / open_gop=0 / weightp=2 / keyint=250 / keyint_min=23 / scenecut=40 / intra_refresh=0 / rc=crf / mbtree=0 / crf=18.0 / qcomp=0.80 / qpmin=0 / qpmax=69 / qpstep=4 / ip_ratio=1.40 / pb_ratio=1.30 / aq=1:0.80
  24. Language                                 : English
  25. Default                                  : No
  26. Forced                                   : No
  27. Matrix coefficients                      : BT.709
  28. Color range                              : Limited

  29. Audio #1
  30. ID                                       : 2
  31. Format                                   : DTS
  32. Format/Info                              : Digital Theater Systems
  33. Mode                                     : 16
  34. Format settings, Endianness              : Big
  35. Codec ID                                 : A_DTS
  36. Duration                                 : 1h 53mn
  37. Bit rate mode                            : Constant
  38. Bit rate                                 : 1 509 Kbps
  39. Channel(s)                               : 6 channels
  40. Channel positions                        : Front: L C R, Side: L R, LFE
  41. Sampling rate                            : 48.0 KHz
  42. Bit depth                                : 24 bits
  43. Compression mode                         : Lossy
  44. Stream size                              : 1.19 GiB (12%)
  45. Language                                 : English
  46. Default                                  : Yes
  47. Forced                                   : No

  48. Audio #2
  49. ID                                       : 3
  50. Format                                   : DTS
  51. Format/Info                              : Digital Theater Systems
  52. Mode                                     : 16
  53. Format settings, Endianness              : Big
  54. Codec ID                                 : A_DTS
  55. Duration                                 : 1h 53mn
  56. Bit rate mode                            : Constant
  57. Bit rate                                 : 255 Kbps
  58. Channel(s)                               : 2 channels
  59. Channel positions                        : Front: L R
  60. Sampling rate                            : 48.0 KHz
  61. Bit depth                                : 24 bits
  62. Compression mode                         : Lossy
  63. Stream size                              : 207 MiB (2%)
  64. Title                                    : Commentary
  65. Language                                 : English
  66. Default                                  : No
  67. Forced                                   : No

  68. Text
  69. ID                                       : 4
  70. Format                                   : UTF-8
  71. Codec ID                                 : S_TEXT/UTF8
  72. Codec ID/Info                            : UTF-8 Plain Text
  73. Language                                 : English
  74. Default                                  : No
  75. Forced                                   : No

  76. Menu
  77. 00:00:00.000                             : :1. Prologue: Many Worlds
  78. 00:04:40.822                             : :2. The Decanter of Tokay
  79. 00:08:52.532                             : :3. The Idea of North
  80. 00:13:05.702                             : :4. Lyra\'s Jordan
  81. 00:18:58.596                             : :5. The Alethiometer
  82. 00:21:58.943                             : :6. Mrs. Coulter
  83. 00:29:15.587                             : :7. The Throwing Nets
  84. 00:33:41.269                             : :8. John Faa
  85. 00:39:41.170                             : :9. The Spies
  86. 00:45:29.644                             : :10. Serafina Pekkala
  87. 00:48:13.641                             : :11. The Aeronaut and the Bear
  88. 00:54:01.822                             : :12. Armour
  89. 00:59:55.550                             : :13. The Lost Boy
  90. 01:08:10.044                             : :14. Captivity
  91. 01:14:12.114                             : :15. Mortal Combat
  92. 01:21:31.678                             : :16. Bolvanger Lights
  93. 01:24:43.829                             : :17. The Silver Guillotine
  94. 01:33:26.059                             : :18. The Witches
  95. 01:39:27.211                             : :19. A Prophesy
  96. 01:43:08.974                             : :20. End Credits
复制代码

复制代码

-------------------------
◎出色剧照
125418tu4mfvii108u18vh.jpg
125419mlbhgo7yyaccygby.jpg
125420x5tajglz3n2aj5to.jpg

-------------------------
[以上高清电影剧照来自互联网,不代表此片高清剧照]
慎重声明:本站供给的一切高清电影作品均是在网上汇集,任何触及贸易盈利目标均不得利用,否则发生的一切结果将由您自己承当!本站将差池本站的任何内容负任何法令义务!该下载内容仅做宽带测试利用,请鄙人载后24小时内删除。请采办正
版!
-------------------------
◎种子下载地址
旅客,假如您要检察本帖隐藏内容请答复
回复

使用道具 举报

蓝光币
5
发表于 2019-12-18 14:26:05 | 显示全部楼层
行行行行行行行行行行行行行行行行行行行行行行行行
回复 支持 反对

使用道具 举报

蓝光币
140
发表于 2020-12-2 18:30:58 | 显示全部楼层
黑暗元素
回复

使用道具 举报

蓝光币
36
发表于 2021-9-3 18:05:04 | 显示全部楼层
行行行行行行行行行行行行行行行行行行行行行行
回复 支持 反对

使用道具 举报

懒得打字嘛,点击右侧快捷回复 【右侧内容,后台自定义】
您需要登录后才可以回帖 登录 | 立即加入

本版积分规则

Archiver|小黑屋| 蓝光电影网 |网站地图

Copyright © 2021 Comsenz Inc. Powered by 蓝光电影网

蓝光电影网

本站内容由用户自主分享和转载自互联网,转载目的在于传递更多信息,并不代表本网赞同其观点和对其真实性负责。

如有侵权、违反国家法律政策行为,请联系我们,我们会第一时间及时清除和处理!

举报反馈邮箱:[email protected]

快速回复 返回顶部 返回列表