找回密码

蓝光电影网

查看: 7025|回复: 7

[1996][灾难][美国][龙卷风Twister.1996.1080p.BluRay.x264.DTS-FGT][1080P-10.42G][MKV]DTS

  [复制链接]
蓝光币
382
发表于 2015-9-12 18:54:33 | 显示全部楼层 |阅读模式

[1996][灾难][美国][龙卷风Twister.1996.1080p.BluRay.x264.DTS-FGT][1080P-10.42G][MKV]DTS
232804oldhwh6xxdrl66wa.jpg

◎影片根基信息
巨细: 10.42G
清楚度: 1080P
视频: MKV
豆瓣评分: 7.2
导演: 扬·德·邦特
编剧: 迈克尔·克莱顿 / 安妮-玛丽·马丁
主演: 海伦·亨特 / 比尔·帕克斯顿 / 加利·艾尔维斯 / 杰米·格尔兹 / 菲利普·塞默·霍夫曼
范例: 剧情 / 行动 / 惊悚 / 冒险 / 灾难
制片国家/地域: 美国
说话: 英语
上映日期: 1996-05-10
片长: 113 分钟
别名: 龙卷风暴
影片: Twister.1996.1080p.BluRay.x264.DTS-FGT

◎剧情简介
       龙卷风的暴戾和奥秘吸引了多量科学家的深入研讨,深入风暴中心是最危险的行为,但亦是摸索龙卷风最有用的方式。乔(海伦·亨特 Helen Hunt饰)和仳离的丈夫比尔(比尔·帕克斯顿 Bill Paxton饰)就是这类“与龙共舞”的科学家,即使他们豪情已经破裂,比尔也已找到新的情人,但出于对龙卷风研讨的痴迷,他们还是决议配合追逐一场俄克拉何马州的飓风,并把新研制成功的探测仪“多萝西”放到龙卷风中心收集数据。
  他们驾驶着陈旧的货车,率领着追风队,向最危险的地方进发。同时,另一队装备精巧的人马也朝着这个偏向驶去,由裘纳(加利·艾尔维斯 Cary Elwes饰)领队,在追风行动中和乔激励较劲。
  一边是志同道合的乔,一边是害怕惊险生活的新女友,比尔在追风进程中若何重新决定自己的豪情门路?更重要的是,面临气力薄弱的对手,和随时葬身其中的龙卷风,乔和比尔若何实现自己的追风胡想?
-------------------------

  1. Video
  2. ID                                       : 1
  3. Format                                   : AVC
  4. Format/Info                              : Advanced Video Codec
  5. Format profile                           : [email protected]
  6. Format settings, CABAC                   : Yes
  7. Format settings, ReFrames                : 5 frames
  8. Codec ID                                 : V_MPEG4/ISO/AVC
  9. Duration                                 : 1h 53mn
  10. Bit rate                                 : 11.5 Mbps
  11. Width                                    : 1 920 pixels
  12. Height                                   : 794 pixels
  13. Display aspect ratio                     : 2.40:1
  14. Frame rate mode                          : Constant
  15. Frame rate                               : 23.976 fps
  16. Color space                              : YUV
  17. Chroma subsampling                       : 4:2:0
  18. Bit depth                                : 8 bits
  19. Scan type                                : Progressive
  20. Bits/(Pixel*Frame)                       : 0.315
  21. Stream size                              : 8.87 GiB (85%)
  22. Writing library                          : x264 core 119 r2106 07efeb4
  23. Encoding settings                        : cabac=1 / ref=5 / deblock=1:-3:-3 / analyse=0x3:0x133 / me=umh / subme=11 / psy=1 / psy_rd=1.10:0.00 / mixed_ref=1 / me_range=48 / chroma_me=1 / trellis=2 / 8x8dct=1 / cqm=0 / deadzone=21,11 / fast_pskip=0 / chroma_qp_offset=-2 / threads=6 / sliced_threads=0 / nr=0 / decimate=0 / interlaced=0 / bluray_compat=0 / constrained_intra=0 / bframes=7 / b_pyramid=2 / b_adapt=2 / b_bias=0 / direct=3 / weightb=1 / open_gop=0 / weightp=2 / keyint=250 / keyint_min=23 / scenecut=40 / intra_refresh=0 / rc=2pass / mbtree=0 / bitrate=11500 / ratetol=1.0 / qcomp=0.60 / qpmin=0 / qpmax=69 / qpstep=4 / cplxblur=20.0 / qblur=0.5 / ip_ratio=1.40 / pb_ratio=1.30 / aq=2:1.00
  24. Language                                 : English
  25. Default                                  : Yes
  26. Forced                                   : No
  27. Color primaries                          : BT.709
  28. Transfer characteristics                 : BT.709
  29. Matrix coefficients                      : BT.709
  30. Color range                              : Limited

  31. Audio #1
  32. ID                                       : 2
  33. Format                                   : DTS
  34. Format/Info                              : Digital Theater Systems
  35. Mode                                     : 16
  36. Format settings, Endianness              : Big
  37. Codec ID                                 : A_DTS
  38. Duration                                 : 1h 53mn
  39. Bit rate mode                            : Constant
  40. Bit rate                                 : 1 509 Kbps
  41. Channel(s)                               : 6 channels
  42. Channel positions                        : Front: L C R, Side: L R, LFE
  43. Sampling rate                            : 48.0 KHz
  44. Bit depth                                : 16 bits
  45. Compression mode                         : Lossy
  46. Stream size                              : 1.19 GiB (11%)
  47. Language                                 : English
  48. Default                                  : Yes
  49. Forced                                   : No

  50. Audio #2
  51. ID                                       : 3
  52. Format                                   : AC-3
  53. Format/Info                              : Audio Coding 3
  54. Format profile                           : Dolby Digital
  55. Mode extension                           : CM (complete main)
  56. Format settings, Endianness              : Big
  57. Codec ID                                 : A_AC3
  58. Duration                                 : 1h 53mn
  59. Bit rate mode                            : Constant
  60. Bit rate                                 : 192 Kbps
  61. Channel(s)                               : 2 channels
  62. Channel positions                        : Front: L R
  63. Sampling rate                            : 48.0 KHz
  64. Bit depth                                : 16 bits
  65. Compression mode                         : Lossy
  66. Stream size                              : 155 MiB (1%)
  67. Title                                    : Commentary track with Director Jan de Bont and Visual Effects Supervisor Stefen Fangmeier
  68. Language                                 : English
  69. Default                                  : No
  70. Forced                                   : No
复制代码

复制代码

-------------------------
◎出色剧照
232804j3emi6iqlrebeijq.jpg
232805hicscvbxziszbort.jpg
232807wjj64elfin4kbj6v.jpg
232807bz2mab4frfm7ww7f.jpg

-------------------------
[以上高清电影剧照来自互联网,不代表此片高清剧照]
慎重声明:本站供给的一切高清电影作品均是在网上汇集,任何触及贸易盈利目标均不得利用,否则发生的一切结果将由您自己承当!本站将差池本站的任何内容负任何法令义务!该下载内容仅做宽带测试利用,请鄙人载后24小时内删除。请采办正
版!
-------------------------
◎种子下载地址
旅客,假如您要检察本帖隐藏内容请答复
回复

使用道具 举报

蓝光币
267
发表于 2019-3-18 17:59:13 | 显示全部楼层
当年的经典呀,看过录像带
回复 支持 反对

使用道具 举报

蓝光币
1117
发表于 2019-5-7 10:45:25 | 显示全部楼层
谢谢楼主分享
回复 支持 反对

使用道具 举报

蓝光币
556
发表于 2019-8-3 21:14:28 | 显示全部楼层
楼主发贴辛苦了,谢谢楼主分享!我觉得蓝光电影网是注册对了!
回复 支持 反对

使用道具 举报

蓝光币
880
发表于 2019-9-15 15:20:37 | 显示全部楼层
:lol,好电影就是经典,谢谢。
回复 支持 反对

使用道具 举报

蓝光币
880
发表于 2019-11-2 17:36:04 | 显示全部楼层
:D,看看龙卷风怎么样。
回复 支持 反对

使用道具 举报

蓝光币
626
发表于 2019-12-1 19:45:51 | 显示全部楼层
感谢分享,经典灾难电影。
回复 支持 反对

使用道具 举报

蓝光币
880
发表于 2020-1-30 10:53:32 | 显示全部楼层
老电影,多谢分享。。。
回复 支持 反对

使用道具 举报

懒得打字嘛,点击右侧快捷回复 【右侧内容,后台自定义】
您需要登录后才可以回帖 登录 | 立即加入

本版积分规则

Archiver|小黑屋| 蓝光电影网 |网站地图

Copyright © 2021 Comsenz Inc. Powered by 蓝光电影网

蓝光电影网

本站内容由用户自主分享和转载自互联网,转载目的在于传递更多信息,并不代表本网赞同其观点和对其真实性负责。

如有侵权、违反国家法律政策行为,请联系我们,我们会第一时间及时清除和处理!

举报反馈邮箱:[email protected]

快速回复 返回顶部 返回列表