找回密码

蓝光电影网

查看: 727|回复: 1

[2014][美国][剧情][伊斯坦堡救援/战火情天/寻水之人/觅水者/占水师][REMUX][1080P-23.1G][MKV]DTS

[复制链接]
蓝光币
382
发表于 2015-9-12 19:03:55 | 显示全部楼层 |阅读模式

[2014][美国][剧情][伊斯坦堡救济/烽火情天/寻水之人/觅水者/占海军][REMUX][1080P-23.1G][MKV]DTS
102250zb66gb9xndilii6g.jpg

◎影片根基信息
巨细: 23.11G
清楚度: 1080P
视频: MKV
豆瓣评分: 6.7
导演: 罗素·克劳
编剧: 安德鲁·奈特 / 安德鲁·阿纳斯塔西奥斯
主演: 杰·科特尼 / 欧嘉·柯瑞兰寇 / 罗素·克劳 / 伊莎贝尔·卢卡斯 / 达蒙·海瑞曼 / 更多...
范例: 剧情 / 战争
制片国家/地域: 美国 / 澳大利亚 / 土耳其
说话: 英语 / 土耳其语 / 希腊语 / 俄语
上映日期: 2014-12-26(澳大利亚/土耳其) / 2015-04-24(美国)
片长: 111分钟
别名: 寻水之人 / 觅水者 / 水占卜师 / 戰火情天(港) / 伊斯坦堡救济(台)
影片: The.Water.Diviner.2014.1080p.BluRay.REMUX.AVC.DTS-HD.MA.5.1-RARBG

◎剧情简介
       一位在澳洲以农为业的的占海军康纳(罗素·克劳 Russell Crowe 饰)在第一次天下大战加里波利战争后前往土耳其伊斯坦堡,试图寻觅他三个参战阵亡儿子的遗骸。即使一路头遭到军方的各式阻止,他也不平不挠,更碰到于伊斯坦堡入住旅店女仆人爱莎(欧嘉·柯瑞兰寇 Olga Kurylenko 饰)及一位曾与他儿子对战的土耳其军官脱手辅佐。康纳捉住一丝希望,为查出真相,穿越饱受烽火践踏的地盘,九死平生,只为寻回儿子阵亡的真相,了结自己及妻子的心愿……
-------------------------

  1. Video
  2. ID                                       : 1
  3. Format                                   : AVC
  4. Format/Info                              : Advanced Video Codec
  5. Format profile                           : [email protected]
  6. Format settings, CABAC                   : Yes
  7. Format settings, ReFrames                : 4 frames
  8. Codec ID                                 : V_MPEG4/ISO/AVC
  9. Duration                                 : 1h 51mn
  10. Bit rate mode                            : Variable
  11. Maximum bit rate                         : 38.0 Mbps
  12. Width                                    : 1 920 pixels
  13. Height                                   : 1 080 pixels
  14. Display aspect ratio                     : 16:9
  15. Frame rate mode                          : Constant
  16. Frame rate                               : 24.000 fps
  17. Color space                              : YUV
  18. Chroma subsampling                       : 4:2:0
  19. Bit depth                                : 8 bits
  20. Scan type                                : Progressive
  21. Title                                    : The.Water.Diviner.2014.1080p.BluRay.REMUX.AVC.DTS-HD.MA.5.1-RARBG
  22. Language                                 : English
  23. Default                                  : No
  24. Forced                                   : No

  25. Audio #1
  26. ID                                       : 2
  27. Format                                   : DTS
  28. Format/Info                              : Digital Theater Systems
  29. Format profile                           : MA / Core
  30. Mode                                     : 16
  31. Format settings, Endianness              : Big
  32. Codec ID                                 : A_DTS
  33. Duration                                 : 1h 51mn
  34. Bit rate mode                            : Variable
  35. Bit rate                                 : Unknown / 1 509 Kbps
  36. Channel(s)                               : 6 channels
  37. Channel positions                        : Front: L C R, Side: L R, LFE
  38. Sampling rate                            : 48.0 KHz
  39. Bit depth                                : 16 bits
  40. Compression mode                         : Lossless / Lossy
  41. Title                                    : The.Water.Diviner.2014.1080p.BluRay.REMUX.AVC.DTS-HD.MA.5.1-RARBG
  42. Language                                 : English
  43. Default                                  : Yes
  44. Forced                                   : No

  45. Audio #2
  46. ID                                       : 3
  47. Format                                   : DTS
  48. Format/Info                              : Digital Theater Systems
  49. Mode                                     : 16
  50. Format settings, Endianness              : Big
  51. Codec ID                                 : A_DTS
  52. Duration                                 : 1h 51mn
  53. Bit rate mode                            : Constant
  54. Bit rate                                 : 1 509 Kbps
  55. Channel(s)                               : 6 channels
  56. Channel positions                        : Front: L C R, Side: L R, LFE
  57. Sampling rate                            : 48.0 KHz
  58. Bit depth                                : 16 bits
  59. Compression mode                         : Lossy
  60. Stream size                              : 1.17 GiB (5%)
  61. Title                                    : The.Water.Diviner.2014.1080p.BluRay.REMUX.AVC.DTS-HD.MA.5.1-RARBG
  62. Language                                 : English
  63. Default                                  : No
  64. Forced                                   : No

  65. Audio #3
  66. ID                                       : 4
  67. Format                                   : AC-3
  68. Format/Info                              : Audio Coding 3
  69. Mode extension                           : CM (complete main)
  70. Format settings, Endianness              : Big
  71. Codec ID                                 : A_AC3
  72. Duration                                 : 1h 51mn
  73. Bit rate mode                            : Constant
  74. Bit rate                                 : 256 Kbps
  75. Channel(s)                               : 2 channels
  76. Channel positions                        : Front: L R
  77. Sampling rate                            : 48.0 KHz
  78. Bit depth                                : 16 bits
  79. Compression mode                         : Lossy
  80. Stream size                              : 204 MiB (1%)
  81. Title                                    : The.Water.Diviner.2014.1080p.BluRay.REMUX.AVC.DTS-HD.MA.5.1-RARBG
  82. Language                                 : English
  83. Default                                  : No
  84. Forced                                   : No

  85. Audio #4
  86. ID                                       : 5
  87. Format                                   : AC-3
  88. Format/Info                              : Audio Coding 3
  89. Mode extension                           : CM (complete main)
  90. Format settings, Endianness              : Big
  91. Codec ID                                 : A_AC3
  92. Duration                                 : 1h 51mn
  93. Bit rate mode                            : Constant
  94. Bit rate                                 : 256 Kbps
  95. Channel(s)                               : 2 channels
  96. Channel positions                        : Front: L R
  97. Sampling rate                            : 48.0 KHz
  98. Bit depth                                : 16 bits
  99. Compression mode                         : Lossy
  100. Stream size                              : 204 MiB (1%)
  101. Title                                    : The.Water.Diviner.2014.1080p.BluRay.REMUX.AVC.DTS-HD.MA.5.1-RARBG
  102. Language                                 : English
  103. Default                                  : No
  104. Forced                                   : No
复制代码

复制代码

-------------------------
◎出色剧照
102247xw667piy6z2i61aw.jpg
102247p96b19x8fbphpw1j.jpg
102248hwbqqw0ob8b9zzjw.jpg

-------------------------
[以上高清电影剧照来自互联网,不代表此片高清剧照]
慎重声明:本站供给的一切高清电影作品均是在网上汇集,任何触及贸易盈利目标均不得利用,否则发生的一切结果将由您自己承当!本站将差池本站的任何内容负任何法令义务!该下载内容仅做宽带测试利用,请鄙人载后24小时内删除。请采办正
版!
-------------------------
◎种子下载地址
旅客,假如您要检察本帖隐藏内容请答复
回复

使用道具 举报

懒得打字嘛,点击右侧快捷回复 【右侧内容,后台自定义】
您需要登录后才可以回帖 登录 | 立即加入

本版积分规则

Archiver|小黑屋| 蓝光电影网 |网站地图

Copyright © 2021 Comsenz Inc. Powered by 蓝光电影网

蓝光电影网

本站内容由用户自主分享和转载自互联网,转载目的在于传递更多信息,并不代表本网赞同其观点和对其真实性负责。

如有侵权、违反国家法律政策行为,请联系我们,我们会第一时间及时清除和处理!

举报反馈邮箱:[email protected]

快速回复 返回顶部 返回列表