找回密码

蓝光电影网

查看: 438|回复: 0

[2014][喜剧][美国][定制伴郎][REMUX][1080P-24.07G][MKV]DTS

[复制链接]
蓝光币
382
发表于 2015-9-12 19:05:19 | 显示全部楼层 |阅读模式

[2014][笑剧][美国][定制伴郎][REMUX][1080P-24.07G][MKV]DTS
110042n222hrp8ech4qdu2.jpg

◎影片根基信息
巨细: 24.07G
清楚度: 1080P
视频: MKV
豆瓣评分: 7.3
导演: 杰里米·加尔利
编剧: 杰里米·加尔利 / Jay Lavender
主演: 凯莉·库柯-斯威汀 / 阿兰·里奇森 / 乔什·盖德 / 凯文·哈特 / 妮基·韦兰 / 更多...
范例: 笑剧
制片国家/地域: 美国
说话: 英语
上映日期: 2015-01-06(美国)
片长: 101分钟
别名: The Golden Tux
影片: The.Wedding.Ringer.2015.1080p.BluRay.REMUX.AVC.DTS-HD.MA.5.1-RARBG

◎剧情简介
       影片报告了乔什·盖德饰演的道格·哈里森行将走入婚姻殿堂,却面临着一个辣手的题目:没有合适的伴郎。随着他与女友(卡蕾·库科 饰)的婚礼邻近,道格追求吉米·卡拉翰(凯文·哈特 饰)的帮助,后者所具有的公司专门为找不到伴郎的人们供给办事。在准备婚礼的进程中,道格和吉米上演了啼笑皆非的故事。
-------------------------

  1. Video
  2. ID                                       : 1
  3. Format                                   : AVC
  4. Format/Info                              : Advanced Video Codec
  5. Format profile                           : [email protected]
  6. Format settings, CABAC                   : Yes
  7. Format settings, ReFrames                : 2 frames
  8. Format settings, GOP                     : M=1, N=10
  9. Codec ID                                 : V_MPEG4/ISO/AVC
  10. Duration                                 : 1h 41mn
  11. Bit rate mode                            : Variable
  12. Width                                    : 1 920 pixels
  13. Height                                   : 1 080 pixels
  14. Display aspect ratio                     : 16:9
  15. Frame rate mode                          : Constant
  16. Frame rate                               : 23.976 fps
  17. Color space                              : YUV
  18. Chroma subsampling                       : 4:2:0
  19. Bit depth                                : 8 bits
  20. Scan type                                : Progressive
  21. Title                                    : The.Wedding.Ringer.2015.1080p.BluRay.REMUX.AVC.DTS-HD.MA.5.1-RARBG
  22. Language                                 : English
  23. Default                                  : No
  24. Forced                                   : No

  25. Audio #1
  26. ID                                       : 2
  27. Format                                   : DTS
  28. Format/Info                              : Digital Theater Systems
  29. Format profile                           : MA / Core
  30. Mode                                     : 16
  31. Format settings, Endianness              : Big
  32. Codec ID                                 : A_DTS
  33. Duration                                 : 1h 41mn
  34. Bit rate mode                            : Variable
  35. Bit rate                                 : Unknown / 1 509 Kbps
  36. Channel(s)                               : 6 channels
  37. Channel positions                        : Front: L C R, Side: L R, LFE
  38. Sampling rate                            : 48.0 KHz
  39. Bit depth                                : 16 bits
  40. Compression mode                         : Lossless / Lossy
  41. Title                                    : The.Wedding.Ringer.2015.1080p.BluRay.REMUX.AVC.DTS-HD.MA.5.1-RARBG
  42. Language                                 : English
  43. Default                                  : Yes
  44. Forced                                   : No

  45. Audio #2
  46. ID                                       : 3
  47. Format                                   : DTS
  48. Format/Info                              : Digital Theater Systems
  49. Mode                                     : 16
  50. Format settings, Endianness              : Big
  51. Codec ID                                 : A_DTS
  52. Duration                                 : 1h 41mn
  53. Bit rate mode                            : Constant
  54. Bit rate                                 : 1 509 Kbps
  55. Channel(s)                               : 6 channels
  56. Channel positions                        : Front: L C R, Side: L R, LFE
  57. Sampling rate                            : 48.0 KHz
  58. Bit depth                                : 16 bits
  59. Compression mode                         : Lossy
  60. Stream size                              : 1.07 GiB (4%)
  61. Title                                    : The.Wedding.Ringer.2015.1080p.BluRay.REMUX.AVC.DTS-HD.MA.5.1-RARBG
  62. Language                                 : English
  63. Default                                  : No
  64. Forced                                   : No

  65. Audio #3
  66. ID                                       : 4
  67. Format                                   : AC-3
  68. Format/Info                              : Audio Coding 3
  69. Format profile                           : Dolby Digital
  70. Mode extension                           : CM (complete main)
  71. Format settings, Endianness              : Big
  72. Codec ID                                 : A_AC3
  73. Duration                                 : 1h 41mn
  74. Bit rate mode                            : Constant
  75. Bit rate                                 : 192 Kbps
  76. Channel(s)                               : 2 channels
  77. Channel positions                        : Front: L R
  78. Sampling rate                            : 48.0 KHz
  79. Bit depth                                : 16 bits
  80. Compression mode                         : Lossy
  81. Stream size                              : 139 MiB (1%)
  82. Title                                    : The.Wedding.Ringer.2015.1080p.BluRay.REMUX.AVC.DTS-HD.MA.5.1-RARBG
  83. Language                                 : English
  84. Default                                  : No
  85. Forced                                   : No

  86. Audio #4
  87. ID                                       : 5
  88. Format                                   : AC-3
  89. Format/Info                              : Audio Coding 3
  90. Mode extension                           : CM (complete main)
  91. Format settings, Endianness              : Big
  92. Codec ID                                 : A_AC3
  93. Duration                                 : 1h 41mn
  94. Bit rate mode                            : Constant
  95. Bit rate                                 : 640 Kbps
  96. Channel(s)                               : 6 channels
  97. Channel positions                        : Front: L C R, Side: L R, LFE
  98. Sampling rate                            : 48.0 KHz
  99. Bit depth                                : 16 bits
  100. Compression mode                         : Lossy
  101. Stream size                              : 464 MiB (2%)
  102. Title                                    : The.Wedding.Ringer.2015.1080p.BluRay.REMUX.AVC.DTS-HD.MA.5.1-RARBG
  103. Language                                 : English
  104. Default                                  : No
  105. Forced                                   : No

  106. Audio #5
  107. ID                                       : 6
  108. Format                                   : DTS
  109. Format/Info                              : Digital Theater Systems
  110. Format profile                           : MA / Core
  111. Mode                                     : 16
  112. Format settings, Endianness              : Big
  113. Codec ID                                 : A_DTS
  114. Duration                                 : 1h 41mn
  115. Bit rate mode                            : Variable
  116. Bit rate                                 : Unknown / 1 509 Kbps
  117. Channel(s)                               : 6 channels
  118. Channel positions                        : Front: L C R, Side: L R, LFE
  119. Sampling rate                            : 48.0 KHz
  120. Bit depth                                : 16 bits
  121. Compression mode                         : Lossless / Lossy
  122. Title                                    : The.Wedding.Ringer.2015.1080p.BluRay.REMUX.AVC.DTS-HD.MA.5.1-RARBG
  123. Language                                 : French
  124. Default                                  : No
  125. Forced                                   : No

  126. Audio #6
  127. ID                                       : 7
  128. Format                                   : DTS
  129. Format/Info                              : Digital Theater Systems
  130. Mode                                     : 16
  131. Format settings, Endianness              : Big
  132. Codec ID                                 : A_DTS
  133. Duration                                 : 1h 41mn
  134. Bit rate mode                            : Constant
  135. Bit rate                                 : 1 509 Kbps
  136. Channel(s)                               : 6 channels
  137. Channel positions                        : Front: L C R, Side: L R, LFE
  138. Sampling rate                            : 48.0 KHz
  139. Bit depth                                : 16 bits
  140. Compression mode                         : Lossy
  141. Stream size                              : 1.07 GiB (4%)
  142. Title                                    : The.Wedding.Ringer.2015.1080p.BluRay.REMUX.AVC.DTS-HD.MA.5.1-RARBG
  143. Language                                 : French
  144. Default                                  : No
  145. Forced                                   : No

  146. Audio #7
  147. ID                                       : 8
  148. Format                                   : AC-3
  149. Format/Info                              : Audio Coding 3
  150. Mode extension                           : CM (complete main)
  151. Format settings, Endianness              : Big
  152. Codec ID                                 : A_AC3
  153. Duration                                 : 1h 41mn
  154. Bit rate mode                            : Constant
  155. Bit rate                                 : 640 Kbps
  156. Channel(s)                               : 6 channels
  157. Channel positions                        : Front: L C R, Side: L R, LFE
  158. Sampling rate                            : 48.0 KHz
  159. Bit depth                                : 16 bits
  160. Compression mode                         : Lossy
  161. Stream size                              : 464 MiB (2%)
  162. Title                                    : The.Wedding.Ringer.2015.1080p.BluRay.REMUX.AVC.DTS-HD.MA.5.1-RARBG
  163. Language                                 : Spanish
  164. Default                                  : No
  165. Forced                                   : No
复制代码

复制代码

-------------------------
◎出色剧照
110038hm5togztq5iwnstq.jpg
110040wykw77yzhh44s4w6.jpg
110041ls6a07onr87egion.jpg

-------------------------
[以上高清电影剧照来自互联网,不代表此片高清剧照]
慎重声明:本站供给的一切高清电影作品均是在网上汇集,任何触及贸易盈利目标均不得利用,否则发生的一切结果将由您自己承当!本站将差池本站的任何内容负任何法令义务!该下载内容仅做宽带测试利用,请鄙人载后24小时内删除。请采办正
版!
-------------------------
◎种子下载地址
旅客,假如您要检察本帖隐藏内容请答复
回复

使用道具 举报

懒得打字嘛,点击右侧快捷回复 【右侧内容,后台自定义】
您需要登录后才可以回帖 登录 | 立即加入

本版积分规则

Archiver|小黑屋| 蓝光电影网 |网站地图

Copyright © 2021 Comsenz Inc. Powered by 蓝光电影网

蓝光电影网

本站内容由用户自主分享和转载自互联网,转载目的在于传递更多信息,并不代表本网赞同其观点和对其真实性负责。

如有侵权、违反国家法律政策行为,请联系我们,我们会第一时间及时清除和处理!

举报反馈邮箱:[email protected]

快速回复 返回顶部 返回列表