找回密码

蓝光电影网

查看: 748|回复: 0

[2015][美国][爱情][偶然的爱/意外的爱情/脑中有钉/钉牢][REMUX][1080P-18.34G][MKV]TrueHD5.1

[复制链接]
蓝光币
382
发表于 2015-9-12 19:06:41 | 显示全部楼层 |阅读模式

[2015][美国][恋爱][偶然的爱/意外的恋爱/脑中有钉/钉牢][REMUX][1080P-18.34G][MKV]TrueHD5.1
115537daaubn7f9799t1tw.jpg

◎影片根基信息
巨细: 18.34G
清楚度: 1080P
视频: MKV
豆瓣评分: 5.0
导演: 大卫·O·拉塞尔
编剧: Kristin Gore / Matthew Silverstein / Dave Jeser / 大卫·O·拉塞尔
主演: 杰克·吉伦哈尔 / 杰西卡·贝尔 / 詹姆斯·麦斯登 / 保罗·雷宾斯 / 凯瑟琳·基纳 / 更多...
范例: 笑剧 / 恋爱
制片国家/地域: 美国 / 英国
说话: 英语
上映日期: 2015-02-10(美国)
片长: 100分钟
别名: 偶然的爱 / 脑中有钉 / 钉牢 / Politics of Love / Nailed
影片: Accidental.Love.2015.1080p.BluRay.REMUX.AVC.TrueHD.5.1-RARBG

◎剧情简介
       贝尔在片中将饰演Sammy Joyce,一位不长于交际的小城镇酒店接待员。Sammy的命运很差,一位大意的工人把一根钉子射进了她的脑子,榨取了她的神经,让她一向感遭到激烈的性欲。没有社保的Sammy来到华盛顿治疗她的怪病。她碰见了汗漫的国会议员(吉伦哈尔),把她的性欲当做是一种本钱从而获得某些政治好处,也让Sammy起头了自己的政治生活。
-------------------------

  1. Video
  2. ID                                       : 1
  3. Format                                   : AVC
  4. Format/Info                              : Advanced Video Codec
  5. Format profile                           : [email protected]
  6. Format settings, CABAC                   : Yes
  7. Format settings, ReFrames                : 4 frames
  8. Format settings, GOP                     : M=3, N=12
  9. Codec ID                                 : V_MPEG4/ISO/AVC
  10. Duration                                 : 1h 40mn
  11. Bit rate mode                            : Variable
  12. Maximum bit rate                         : 35.0 Mbps
  13. Width                                    : 1 920 pixels
  14. Height                                   : 1 080 pixels
  15. Display aspect ratio                     : 16:9
  16. Frame rate mode                          : Constant
  17. Frame rate                               : 23.976 fps
  18. Color space                              : YUV
  19. Chroma subsampling                       : 4:2:0
  20. Bit depth                                : 8 bits
  21. Scan type                                : Progressive
  22. Title                                    : Accidental.Love.2015.1080p.BluRay.REMUX.AVC.TrueHD.5.1-RARBG
  23. Language                                 : English
  24. Default                                  : No
  25. Forced                                   : No

  26. Audio #1
  27. ID                                       : 2
  28. Format                                   : TrueHD
  29. Codec ID                                 : A_TRUEHD
  30. Duration                                 : 1h 40mn
  31. Bit rate mode                            : Variable
  32. Maximum bit rate                         : 5 037 Kbps
  33. Channel(s)                               : 6 channels
  34. Channel positions                        : Front: L C R, Side: L R, LFE
  35. Sampling rate                            : 48.0 KHz
  36. Bit depth                                : 24 bits
  37. Compression mode                         : Lossless
  38. Title                                    : Accidental.Love.2015.1080p.BluRay.REMUX.AVC.TrueHD.5.1-RARBG
  39. Language                                 : English
  40. Default                                  : Yes
  41. Forced                                   : No

  42. Audio #2
  43. ID                                       : 3
  44. Format                                   : AC-3
  45. Format/Info                              : Audio Coding 3
  46. Mode extension                           : CM (complete main)
  47. Format settings, Endianness              : Big
  48. Codec ID                                 : A_AC3
  49. Duration                                 : 1h 40mn
  50. Bit rate mode                            : Constant
  51. Bit rate                                 : 384 Kbps
  52. Channel(s)                               : 6 channels
  53. Channel positions                        : Front: L C R, Side: L R, LFE
  54. Sampling rate                            : 48.0 KHz
  55. Bit depth                                : 16 bits
  56. Compression mode                         : Lossy
  57. Stream size                              : 277 MiB (1%)
  58. Title                                    : Accidental.Love.2015.1080p.BluRay.REMUX.AVC.TrueHD.5.1-RARBG
  59. Language                                 : English
  60. Default                                  : No
  61. Forced                                   : No

  62. Audio #3
  63. ID                                       : 4
  64. Format                                   : AC-3
  65. Format/Info                              : Audio Coding 3
  66. Mode extension                           : CM (complete main)
  67. Format settings, Endianness              : Big
  68. Codec ID                                 : A_AC3
  69. Duration                                 : 1h 40mn
  70. Bit rate mode                            : Constant
  71. Bit rate                                 : 192 Kbps
  72. Channel(s)                               : 2 channels
  73. Channel positions                        : Front: L R
  74. Sampling rate                            : 48.0 KHz
  75. Bit depth                                : 16 bits
  76. Compression mode                         : Lossy
  77. Stream size                              : 138 MiB (1%)
  78. Title                                    : Accidental.Love.2015.1080p.BluRay.REMUX.AVC.TrueHD.5.1-RARBG
  79. Language                                 : English
  80. Default                                  : No
  81. Forced                                   : No
复制代码

复制代码

-------------------------
◎出色剧照
115534saqz5ohs0r8k5j7u.jpg
115535t02hsgp70ds1zv22.jpg
115536lz5a3uuo5u8b8cr3.jpg

-------------------------
[以上高清电影剧照来自互联网,不代表此片高清剧照]
慎重声明:本站供给的一切高清电影作品均是在网上汇集,任何触及贸易盈利目标均不得利用,否则发生的一切结果将由您自己承当!本站将差池本站的任何内容负任何法令义务!该下载内容仅做宽带测试利用,请鄙人载后24小时内删除。请采办正
版!
-------------------------
◎种子下载地址
旅客,假如您要检察本帖隐藏内容请答复
回复

使用道具 举报

懒得打字嘛,点击右侧快捷回复 【右侧内容,后台自定义】
您需要登录后才可以回帖 登录 | 立即加入

本版积分规则

Archiver|小黑屋| 蓝光电影网 |网站地图

Copyright © 2021 Comsenz Inc. Powered by 蓝光电影网

蓝光电影网

本站内容由用户自主分享和转载自互联网,转载目的在于传递更多信息,并不代表本网赞同其观点和对其真实性负责。

如有侵权、违反国家法律政策行为,请联系我们,我们会第一时间及时清除和处理!

举报反馈邮箱:[email protected]

快速回复 返回顶部 返回列表