找回密码

蓝光电影网

查看: 833|回复: 0

[2014][美国][剧情][代号X营/X射线营地][1080P-6.62G][MKV]DTS

[复制链接]
蓝光币
382
发表于 2015-9-12 19:07:11 | 显示全部楼层 |阅读模式

[2014][美国][剧情][代号X营/X射线营地][1080P-6.62G][MKV]DTS
115957dpl79gn7p95lng2c.jpg

◎影片根基信息
巨细: 6.62G
清楚度: 1080P
视频: MKV
豆瓣评分: 7.0
导演: 彼得·萨特勒
编剧: 彼得·萨特勒
主演: 克里斯汀·斯图尔特 / 佩曼·莫阿迪 / 莱恩·加里逊 / 约瑟夫·朱利安·索里亚 / Mark LeBnani / 更多...
范例: 剧情
制片国家/地域: 美国
说话: 英语
上映日期: 2014-10-17(美国)
片长: 117分钟
别名: 代号X营
影片: Camp.X-Ray.2014.1080p.BluRay.x264.DTS-RARBG

◎剧情简介
       年轻的女孩可报酬逃走无聊小镇生活决议从军,她并没有如同自己设想般被送到伊拉克退役,她被放置在了关塔那摩湾拘押中心。在拘押中心,她被穆斯林监犯们敌视,但是她与一个被关押八年的穆斯林男人逐步成长了一段奇异的友谊。不外目击好友被频频羞辱凌虐、刑讯逼供以后,她的心里逐步起了变化……
-------------------------

  1. Video
  2. ID                                       : 1
  3. Format                                   : AVC
  4. Format/Info                              : Advanced Video Codec
  5. Format profile                           : [email protected]
  6. Format settings, CABAC                   : Yes
  7. Format settings, ReFrames                : 5 frames
  8. Codec ID                                 : V_MPEG4/ISO/AVC
  9. Duration                                 : 1h 57mn
  10. Bit rate                                 : 7 158 Kbps
  11. Width                                    : 1 920 pixels
  12. Height                                   : 808 pixels
  13. Display aspect ratio                     : 2.40:1
  14. Frame rate mode                          : Constant
  15. Frame rate                               : 24.000 fps
  16. Color space                              : YUV
  17. Chroma subsampling                       : 4:2:0
  18. Bit depth                                : 8 bits
  19. Scan type                                : Progressive
  20. Bits/(Pixel*Frame)                       : 0.192
  21. Stream size                              : 5.86 GiB (89%)
  22. Title                                    : Camp.X-Ray.2014.1080p.BluRay.x264.DTS-RARBG
  23. Writing library                          : x264 core 146 r2538 121396c
  24. Encoding settings                        : cabac=1 / ref=5 / deblock=1:-1:-1 / analyse=0x3:0x133 / me=umh / subme=7 / psy=1 / psy_rd=1.00:0.15 / mixed_ref=1 / me_range=16 / chroma_me=1 / trellis=1 / 8x8dct=1 / cqm=0 / deadzone=21,11 / fast_pskip=0 / chroma_qp_offset=-3 / threads=18 / lookahead_threads=3 / sliced_threads=0 / nr=0 / decimate=1 / interlaced=0 / bluray_compat=0 / constrained_intra=0 / bframes=3 / b_pyramid=2 / b_adapt=1 / b_bias=0 / direct=3 / weightb=1 / open_gop=0 / weightp=2 / keyint=240 / keyint_min=24 / scenecut=40 / intra_refresh=0 / rc_lookahead=50 / rc=crf / mbtree=1 / crf=20.0 / qcomp=0.60 / qpmin=10 / qpmax=51 / qpstep=4 / ip_ratio=1.40 / aq=1:1.00
  25. Language                                 : English
  26. Default                                  : Yes
  27. Forced                                   : No

  28. Audio
  29. ID                                       : 2
  30. Format                                   : DTS
  31. Format/Info                              : Digital Theater Systems
  32. Mode                                     : 16
  33. Format settings, Endianness              : Big
  34. Codec ID                                 : A_DTS
  35. Duration                                 : 1h 57mn
  36. Bit rate mode                            : Constant
  37. Bit rate                                 : 768 Kbps
  38. Channel(s)                               : 6 channels
  39. Channel positions                        : Front: L C R, Side: L R, LFE
  40. Sampling rate                            : 48.0 KHz
  41. Bit depth                                : 24 bits
  42. Compression mode                         : Lossy
  43. Stream size                              : 644 MiB (9%)
  44. Title                                    : Camp.X-Ray.2014.1080p.BluRay.x264.DTS-RARBG
  45. Language                                 : English
  46. Default                                  : Yes
  47. Forced                                   : No
复制代码

复制代码

-------------------------
◎出色剧照
115948zvlx4nuv0lzyxlux.jpg
115950bbythfgtrz2wgu6t.jpg
115952izt681mcjte8h5c7.jpg
115954m7f7lggbb77gsw3g.jpg

-------------------------
[以上高清电影剧照来自互联网,不代表此片高清剧照]
慎重声明:本站供给的一切高清电影作品均是在网上汇集,任何触及贸易盈利目标均不得利用,否则发生的一切结果将由您自己承当!本站将差池本站的任何内容负任何法令义务!该下载内容仅做宽带测试利用,请鄙人载后24小时内删除。请采办正
版!
-------------------------
◎种子下载地址
旅客,假如您要检察本帖隐藏内容请答复
回复

使用道具 举报

懒得打字嘛,点击右侧快捷回复 【右侧内容,后台自定义】
您需要登录后才可以回帖 登录 | 立即加入

本版积分规则

Archiver|小黑屋| 蓝光电影网 |网站地图

Copyright © 2021 Comsenz Inc. Powered by 蓝光电影网

蓝光电影网

本站内容由用户自主分享和转载自互联网,转载目的在于传递更多信息,并不代表本网赞同其观点和对其真实性负责。

如有侵权、违反国家法律政策行为,请联系我们,我们会第一时间及时清除和处理!

举报反馈邮箱:[email protected]

快速回复 返回顶部 返回列表