找回密码

蓝光电影网

查看: 734|回复: 0

[美国][惊悚][美满姻缘A.Good.Marriage.2014.1080p.BluRay.x264.DTS-RARBG][1080P-9.02G][MKV]DTS

[复制链接]
蓝光币
426
发表于 2015-9-12 19:07:39 | 显示全部楼层 |阅读模式

[2014][美国][惊悚][完竣姻缘A.Good.Marriage.2014.1080p.BluRay.x264.DTS-RARBG][1080P-9.02G][MKV]DTS
120703e3vflzhg36j79ulj.jpg

◎影片根基信息
巨细: 9.02G
清楚度: 1080P
视频: MKV
豆瓣评分: 5.5
导演: Peter Askin
编剧: 斯蒂芬·金
主演: 琼·艾伦 / 安东尼·拉帕格利亚 / 史蒂芬·朗 / 卡拉·布欧诺 / 克里斯汀·康奈利 / 更多...
范例: 惊悚
制片国家/地域: 美国
说话: 英语
上映日期: 2014-10-03(美国)
影片: A.Good.Marriage.2014.1080p.BluRay.x264.DTS-RARBG

◎剧情简介
       与丈夫(安东尼·拉帕格利亚饰)庆贺完成婚25周年后未几,丈夫出差在外,达西(琼·艾伦)在车库找电池,却无意中发现丈夫就是消息中说的“污名昭著的连环**比蒂”。
-------------------------

  1. Video
  2. ID                                       : 1
  3. Format                                   : AVC
  4. Format/Info                              : Advanced Video Codec
  5. Format profile                           : [email protected]
  6. Format settings, CABAC                   : Yes
  7. Format settings, ReFrames                : 4 frames
  8. Codec ID                                 : V_MPEG4/ISO/AVC
  9. Duration                                 : 1h 41mn
  10. Bit rate                                 : 10.9 Mbps
  11. Nominal bit rate                         : 11.5 Mbps
  12. Width                                    : 1 920 pixels
  13. Height                                   : 796 pixels
  14. Display aspect ratio                     : 2.40:1
  15. Frame rate mode                          : Constant
  16. Frame rate                               : 23.976 fps
  17. Color space                              : YUV
  18. Chroma subsampling                       : 4:2:0
  19. Bit depth                                : 8 bits
  20. Scan type                                : Progressive
  21. Bits/(Pixel*Frame)                       : 0.298
  22. Stream size                              : 7.77 GiB (86%)
  23. Title                                    : A.Good.Marriage.2014.1080p.BluRay.x264.DTS-RARBG
  24. Writing library                          : x264 core 144 r96 40bb568
  25. Encoding settings                        : cabac=1 / ref=4 / deblock=1:-2:-2 / analyse=0x3:0x113 / me=umh / subme=7 / psy=1 / psy_rd=1.00:0.15 / mixed_ref=1 / me_range=16 / chroma_me=1 / trellis=1 / 8x8dct=1 / cqm=0 / deadzone=21,11 / fast_pskip=1 / chroma_qp_offset=-3 / threads=12 / lookahead_threads=3 / sliced_threads=0 / nr=0 / decimate=1 / interlaced=0 / bluray_compat=0 / constrained_intra=0 / bframes=3 / b_pyramid=2 / b_adapt=2 / b_bias=0 / direct=3 / weightb=1 / open_gop=0 / weightp=2 / keyint=250 / keyint_min=25 / scenecut=40 / intra_refresh=0 / rc_lookahead=50 / rc=abr / mbtree=1 / bitrate=11500 / ratetol=1.0 / qcomp=0.60 / qpmin=0 / qpmax=69 / qpstep=4 / vbv_maxrate=31250 / vbv_bufsize=31250 / nal_hrd=none / filler=0 / ip_ratio=1.40 / aq=1:1.00
  26. Language                                 : English
  27. Default                                  : Yes
  28. Forced                                   : No

  29. Audio
  30. ID                                       : 2
  31. Format                                   : DTS
  32. Format/Info                              : Digital Theater Systems
  33. Mode                                     : 16
  34. Format settings, Endianness              : Big
  35. Codec ID                                 : A_DTS
  36. Duration                                 : 1h 41mn
  37. Bit rate mode                            : Constant
  38. Bit rate                                 : 1 509 Kbps
  39. Channel(s)                               : 6 channels
  40. Channel positions                        : Front: L C R, Side: L R, LFE
  41. Sampling rate                            : 48.0 KHz
  42. Bit depth                                : 16 bits
  43. Compression mode                         : Lossy
  44. Stream size                              : 1.07 GiB (12%)
  45. Title                                    : A.Good.Marriage.2014.1080p.BluRay.x264.DTS-RARBG
  46. Language                                 : English
  47. Default                                  : Yes
  48. Forced                                   : No
复制代码

复制代码

-------------------------
◎出色剧照
120659gmi0drf7a0mf0ro2.jpg
120700q1u5auj2peg8tz7m.jpg
120701r89ehgaemh881mag.jpg
120702fijuuli6zczuilll.jpg

-------------------------
[以上高清电影剧照来自互联网,不代表此片高清剧照]
慎重声明:本站供给的一切高清电影作品均是在网上汇集,任何触及贸易盈利目标均不得利用,否则发生的一切结果将由您自己承当!本站将差池本站的任何内容负任何法令义务!该下载内容仅做宽带测试利用,请鄙人载后24小时内删除。请采办正
版!
-------------------------
◎种子下载地址
旅客,假如您要检察本帖隐藏内容请答复
回复

使用道具 举报

懒得打字嘛,点击右侧快捷回复 【右侧内容,后台自定义】
您需要登录后才可以回帖 登录 | 立即加入

本版积分规则

Archiver|小黑屋| 蓝光电影网 |网站地图

Copyright © 2021 Comsenz Inc. Powered by 蓝光电影网

蓝光电影网

本站内容由用户自主分享和转载自互联网,转载目的在于传递更多信息,并不代表本网赞同其观点和对其真实性负责。

如有侵权、违反国家法律政策行为,请联系我们,我们会第一时间及时清除和处理!

举报反馈邮箱:[email protected]

快速回复 返回顶部 返回列表