找回密码

蓝光电影网

查看: 1149|回复: 4

[1997][德国][犯罪][战龙闯天关/敲开天堂的门/末路叹世界/敲开天堂门/扣响上帝之门][1080P-8.13G][MKV]DD5.1

[复制链接]
蓝光币
382
发表于 2015-9-12 19:21:38 | 显示全部楼层 |阅读模式

[1997][德国][犯罪][战龙闯天关/敲开天堂的门/末路叹天下/敲开天堂门/扣响天主之门][1080P-8.13G][MKV]DD5.1
093004v3ja3ukaa3lkkk7y.jpg

◎影片根基信息
巨细: 8.13G
清楚度: 1080P
视频: MKV
豆瓣评分: 8.6
导演: 托马斯·雅恩
编剧: 托马斯·雅恩 / 蒂尔·施威格
主演: 蒂尔·施威格 / 让·约瑟夫·莱佛斯 / 莫里兹·布雷多 / Thierry van Werveke / Huub Stapel
范例: 剧情 / 笑剧 / 行动 / 犯罪
制片国家/地域: 德国 / 比利时
说话: 德语 / 英语
上映日期: 1997-02-20
片长: 87 分钟
别名: 战龙闯天关 / 末路叹天下 / 敲开天堂门 / 扣响天主之门
影片: Knockin.on.Heavens.Door.1997.1080p.BluRay.x264.DD5.1-FGT

◎剧情简介
       Martin Brest(蒂尔·施威格 Til Schweiger饰)和Rudi Wurlitzer(让·约瑟夫·莱佛斯 Jan Josef Liefers 饰)是两个身患不治之症的病人,两人在医院相遇了,相谈甚欢更一路喝了一瓶偶然找到的酒。两人喝醉后,Martin晓得了Rudi一个奥秘:长这么大Rudi居然还没见过大海。Martin决议在Rudi临终之前实现他这个愿望。两人偷了一辆车,不想这辆车居然是一黑帮老迈的,里面更藏有大量现金。两人还一路抢劫,被差人追捕。黑帮的报酬了追回车里的钱,也在追杀他们。在寻觅大海的路上,两人到底要历经几多艰险,Martin和Rudi最初能否实现看一眼大海的愿望,天堂在前,两人要去敲开天堂的大门了......
-------------------------

  1. Video
  2. ID                                       : 1
  3. Format                                   : AVC
  4. Format/Info                              : Advanced Video Codec
  5. Format profile                           : [email protected]
  6. Format settings, CABAC                   : Yes
  7. Format settings, ReFrames                : 5 frames
  8. Codec ID                                 : V_MPEG4/ISO/AVC
  9. Duration                                 : 1h 28mn
  10. Bit rate                                 : 12.2 Mbps
  11. Width                                    : 1 920 pixels
  12. Height                                   : 816 pixels
  13. Display aspect ratio                     : 2.35:1
  14. Frame rate mode                          : Constant
  15. Frame rate                               : 23.976 fps
  16. Color space                              : YUV
  17. Chroma subsampling                       : 4:2:0
  18. Bit depth                                : 8 bits
  19. Scan type                                : Progressive
  20. Bits/(Pixel*Frame)                       : 0.324
  21. Stream size                              : 7.57 GiB (93%)
  22. Language                                 : English
  23. Default                                  : Yes
  24. Forced                                   : No

  25. Audio
  26. ID                                       : 2
  27. Format                                   : AC-3
  28. Format/Info                              : Audio Coding 3
  29. Mode extension                           : CM (complete main)
  30. Format settings, Endianness              : Big
  31. Codec ID                                 : A_AC3
  32. Duration                                 : 1h 28mn
  33. Bit rate mode                            : Constant
  34. Bit rate                                 : 640 Kbps
  35. Channel(s)                               : 6 channels
  36. Channel positions                        : Front: L C R, Side: L R, LFE
  37. Sampling rate                            : 48.0 KHz
  38. Bit depth                                : 16 bits
  39. Compression mode                         : Lossy
  40. Stream size                              : 407 MiB (5%)
  41. Language                                 : English
  42. Default                                  : Yes
  43. Forced                                   : No

  44. Text
  45. ID                                       : 3
  46. Format                                   : UTF-8
  47. Codec ID                                 : S_TEXT/UTF8
  48. Codec ID/Info                            : UTF-8 Plain Text
  49. Language                                 : English
  50. Default                                  : No
  51. Forced                                   : No

  52. Menu
  53. 00:00:00.000                             : :00:00:00.000
  54. 00:07:58.395                             : :00:07:58.395
  55. 00:15:45.778                             : :00:15:45.778
  56. 00:20:59.633                             : :00:20:59.633
  57. 00:26:37.513                             : :00:26:37.513
  58. 00:32:24.401                             : :00:32:24.401
  59. 00:39:46.384                             : :00:39:46.384
  60. 00:47:04.613                             : :00:47:04.613
  61. 00:54:11.832                             : :00:54:11.832
  62. 01:02:44.844                             : :01:02:44.844
  63. 01:11:54.060                             : :01:11:54.060
  64. 01:19:49.410                             : :01:19:49.410
复制代码

复制代码

-------------------------
◎出色剧照
093001lcdzzc0nndnz3lux.jpg
093002x5ap61pvclosvsd1.jpg
093003tyjgsq1vc9jy57yl.jpg
093003q099ysy5tt225b1w.jpg

-------------------------
[以上高清电影剧照来自互联网,不代表此片高清剧照]
慎重声明:本站供给的一切高清电影作品均是在网上汇集,任何触及贸易盈利目标均不得利用,否则发生的一切结果将由您自己承当!本站将差池本站的任何内容负任何法令义务!该下载内容仅做宽带测试利用,请鄙人载后24小时内删除。请采办正
版!
-------------------------
◎种子下载地址
旅客,假如您要检察本帖隐藏内容请答复
回复

使用道具 举报

蓝光币
169
发表于 2021-8-26 22:40:13 | 显示全部楼层
楼主发贴辛苦了,谢谢楼主分享!我觉得蓝光电影网是注册对了!
回复 支持 反对

使用道具 举报

懒得打字嘛,点击右侧快捷回复 【右侧内容,后台自定义】
您需要登录后才可以回帖 登录 | 立即加入

本版积分规则

Archiver|小黑屋| 蓝光电影网 |网站地图

Copyright © 2021 Comsenz Inc. Powered by 蓝光电影网

蓝光电影网

本站内容由用户自主分享和转载自互联网,转载目的在于传递更多信息,并不代表本网赞同其观点和对其真实性负责。

如有侵权、违反国家法律政策行为,请联系我们,我们会第一时间及时清除和处理!

举报反馈邮箱:[email protected]

快速回复 返回顶部 返回列表