找回密码

蓝光电影网

查看: 725|回复: 0

[2014][美国][黑海夺金Black.Sea.2014.1080p.BluRay.REMUX.AVC.DTS-HD.MA.5.1-RARBG-30.5G][MKV]DTS

[复制链接]
蓝光币
382
发表于 2015-9-12 19:23:20 | 显示全部楼层 |阅读模式

[2014][美国][黑海夺金Black.Sea.2014.1080p.BluRay.REMUX.AVC.DTS-HD.MA.5.1-RARBG-30.5G][MKV]DTS

◎影片根基信息
巨细: 5.48G
说话: 英语 / 俄语
上映日期: 2014-12-05(英国)
片长: 114分钟
别名: 黑航潜航:追击20亿(港)
清楚度: 1080P
视频: MKV
豆瓣评分: 6.6
导演: 凯文·麦克唐纳
编剧: Dennis Kelly
主演: 裘德·洛 / 茱蒂·威泰克 / 本·门德尔森 / 托比亚斯·门基斯 / 斯科特·麦克纳里 / 更多...
范例: 惊悚 / 冒险
制片国家/地域: 英国 / 美国 / 俄罗斯
影片: Black.Sea.2014.1080p.BluRay.REMUX.AVC.DTS-HD.MA.5.1-RARBG

◎剧情简介
       报告了一个潜艇的船主带着自己的队伍奔赴海底,寻觅沉没的宝藏的故事。裘德·洛在片中饰演的是一位具有小混混气质的船主。在幽闭的潜艇内部,船主和他的船员都由于压力致使“精神模糊”。终极,寻宝之旅酿成了不是你死就是我亡的保存游戏。
-------------------------

  1. Video
  2. ID                                       : 1
  3. Format                                   : AVC
  4. Format/Info                              : Advanced Video Codec
  5. Format profile                           : [email protected]
  6. Format settings, CABAC                   : Yes
  7. Format settings, ReFrames                : 4 frames
  8. Codec ID                                 : V_MPEG4/ISO/AVC
  9. Duration                                 : 1h 54mn
  10. Bit rate mode                            : Variable
  11. Maximum bit rate                         : 35.0 Mbps
  12. Width                                    : 1 920 pixels
  13. Height                                   : 1 080 pixels
  14. Display aspect ratio                     : 16:9
  15. Frame rate mode                          : Constant
  16. Frame rate                               : 23.976 fps
  17. Color space                              : YUV
  18. Chroma subsampling                       : 4:2:0
  19. Bit depth                                : 8 bits
  20. Scan type                                : Progressive
  21. Title                                    : Black.Sea.2014.1080p.BluRay.REMUX.AVC.DTS-HD.MA.5.1-RARBG
  22. Language                                 : English
  23. Default                                  : No
  24. Forced                                   : No

  25. Audio #1
  26. ID                                       : 2
  27. Format                                   : DTS
  28. Format/Info                              : Digital Theater Systems
  29. Format profile                           : MA / Core
  30. Mode                                     : 16
  31. Format settings, Endianness              : Big
  32. Codec ID                                 : A_DTS
  33. Duration                                 : 1h 54mn
  34. Bit rate mode                            : Variable
  35. Bit rate                                 : Unknown / 1 509 Kbps
  36. Channel(s)                               : 6 channels
  37. Channel positions                        : Front: L C R, Side: L R, LFE
  38. Sampling rate                            : 48.0 KHz
  39. Bit depth                                : 24 bits
  40. Compression mode                         : Lossless / Lossy
  41. Title                                    : Black.Sea.2014.1080p.BluRay.REMUX.AVC.DTS-HD.MA.5.1-RARBG
  42. Language                                 : English
  43. Default                                  : Yes
  44. Forced                                   : No

  45. Audio #2
  46. ID                                       : 3
  47. Format                                   : DTS
  48. Format/Info                              : Digital Theater Systems
  49. Mode                                     : 16
  50. Format settings, Endianness              : Big
  51. Codec ID                                 : A_DTS
  52. Duration                                 : 1h 54mn
  53. Bit rate mode                            : Constant
  54. Bit rate                                 : 1 509 Kbps
  55. Channel(s)                               : 6 channels
  56. Channel positions                        : Front: L C R, Side: L R, LFE
  57. Sampling rate                            : 48.0 KHz
  58. Bit depth                                : 24 bits
  59. Compression mode                         : Lossy
  60. Stream size                              : 1.21 GiB (4%)
  61. Title                                    : Black.Sea.2014.1080p.BluRay.REMUX.AVC.DTS-HD.MA.5.1-RARBG
  62. Language                                 : English
  63. Default                                  : No
  64. Forced                                   : No

  65. Audio #3
  66. ID                                       : 4
  67. Format                                   : AC-3
  68. Format/Info                              : Audio Coding 3
  69. Format profile                           : Dolby Digital
  70. Mode extension                           : CM (complete main)
  71. Format settings, Endianness              : Big
  72. Codec ID                                 : A_AC3
  73. Duration                                 : 1h 54mn
  74. Bit rate mode                            : Constant
  75. Bit rate                                 : 192 Kbps
  76. Channel(s)                               : 2 channels
  77. Channel positions                        : Front: L R
  78. Sampling rate                            : 48.0 KHz
  79. Bit depth                                : 16 bits
  80. Compression mode                         : Lossy
  81. Stream size                              : 158 MiB (1%)
  82. Title                                    : Black.Sea.2014.1080p.BluRay.REMUX.AVC.DTS-HD.MA.5.1-RARBG
  83. Language                                 : English
  84. Default                                  : No
  85. Forced                                   : No

  86. Audio #4
  87. ID                                       : 5
  88. Format                                   : AC-3
  89. Format/Info                              : Audio Coding 3
  90. Format profile                           : Dolby Digital
  91. Mode extension                           : CM (complete main)
  92. Format settings, Endianness              : Big
  93. Codec ID                                 : A_AC3
  94. Duration                                 : 1h 54mn
  95. Bit rate mode                            : Constant
  96. Bit rate                                 : 192 Kbps
  97. Channel(s)                               : 2 channels
  98. Channel positions                        : Front: L R
  99. Sampling rate                            : 48.0 KHz
  100. Bit depth                                : 16 bits
  101. Compression mode                         : Lossy
  102. Stream size                              : 158 MiB (1%)
  103. Title                                    : Black.Sea.2014.1080p.BluRay.REMUX.AVC.DTS-HD.MA.5.1-RARBG
  104. Language                                 : English
  105. Default                                  : No
  106. Forced                                   : No
复制代码

复制代码

-------------------------
◎出色剧照

-------------------------
[以上高清电影剧照来自互联网,不代表此片高清剧照]
慎重声明:本站供给的一切高清电影作品均是在网上汇集,任何触及贸易盈利目标均不得利用,否则发生的一切结果将由您自己承当!本站将差池本站的任何内容负任何法令义务!该下载内容仅做宽带测试利用,请鄙人载后24小时内删除。请采办正
版!
-------------------------
◎种子下载地址

  1. magnet:?xt=urn:btih:B4D94B539EF18143A0238C586C23C3B0DF39C830
复制代码

回复

使用道具 举报

懒得打字嘛,点击右侧快捷回复 【右侧内容,后台自定义】
您需要登录后才可以回帖 登录 | 立即加入

本版积分规则

Archiver|小黑屋| 蓝光电影网 |网站地图

Copyright © 2021 Comsenz Inc. Powered by 蓝光电影网

蓝光电影网

本站内容由用户自主分享和转载自互联网,转载目的在于传递更多信息,并不代表本网赞同其观点和对其真实性负责。

如有侵权、违反国家法律政策行为,请联系我们,我们会第一时间及时清除和处理!

举报反馈邮箱:[email protected]

快速回复 返回顶部 返回列表