找回密码

蓝光电影网

查看: 395|回复: 0

[2014][美国][剧情][大眼睛奇缘/大眼睛][REMUX][1080P-23.66G][MKV]DTS

[复制链接]
蓝光币
382
发表于 2015-9-12 19:43:26 | 显示全部楼层 |阅读模式

[2014][美国][剧情][大眼睛奇缘/大眼睛][REMUX][1080P-23.66G][MKV]DTS
100301lzcj2c8xe1jltb2t.jpg

◎影片根基信息
巨细: 20G
清楚度: 1080P
视频: MKV
说话: 英语 / 法语 / 意大利语
上映日期: 2014-12-25(美国)
片长: 106分钟
别名: 大眼睛奇缘(港)
豆瓣评分: 6.8
导演: 蒂姆·波顿
编剧: 斯科特·亚历山大 / 拉里·卡拉斯泽斯基
主演: 艾米·亚当斯 / 克里斯托弗·沃尔兹 / 克里斯滕·里特 / 詹森·舒瓦兹曼 / 丹尼·赫斯顿 / 更多...
范例: 剧情 / 列传
制片国家/地域: 美国
影片: Big.Eyes.2014.1080p.BluRay.REMUX.AVC.DTS-HD.MA.5.1-RARBG

◎剧情简介
       在上个世纪60年月,一种名为“大眼孩子”的插图风行起来。未几,其作者沃尔特·基恩遭到起诉,被指责窃取他人作品,而对朴直是沃尔特的妻子玛格丽特。玛格丽特暗示,大眼孩子的绘画原本出自她之手,性情外向的她天天在地下室里作画,而丈夫沃尔特仅仅是在画作下方签上自己的名字停止销售而已。终极二人婚姻破裂。工作闹上法庭后,法官让二人现场作画,沃尔特推三阻四,捏词不竭,终极版权案水落石出。

花絮  

.凯特·哈德森与托马斯·哈登·丘奇、瑞茜·威瑟斯彭与瑞恩·雷诺兹——这两对组合此前在分歧的期间都曾是影片配角的人选。
.这是蒂姆·波顿执导的第一部电影——里面的主演都是他此前总从未合作过的——一次全新的履历。
.蒂姆·波顿与摄影师德尔邦内尔也是初次合作,后者来自法国,此前曾拍摄过《天使爱美丽》、《醉乡民谣》等成功的作品。
.蒂姆·伯顿与德尔邦内尔计划用35毫米胶片拍摄本片,但由于本钱限制加上温哥华Deluxe洗印厂在2012年开张,他们不能不用数字格式拍摄本片。
.影片的编剧斯科特·亚历山大与拉里·卡拉斯泽斯基已经为蒂姆伯顿写过《埃德伍德》,这是他们一路合作的第二部人物列传片。而这对编剧同伴还编写过《月亮上的汉子》的剧本,那也是一部人物列传片。.
Lana Del Rey初次与蒂姆伯顿合作,为本片录制了两首歌曲。她也为《沉睡魔咒》演唱过主题曲,那部影片原定由蒂姆伯顿执导。
.Margaret Keane的画作在影片退出后身价大涨。波顿收藏有大量她的作品。Keane还曾亲身为波顿和他的妻子海伦娜以及他们的吉娃娃画过肖像画。
.艾米·亚当斯最初拒绝出演本片,由于她感觉脚色缺少“激烈的自我的声音”。但是在出演《美国圈套》以后,亚当斯对脚色有了新的熟悉,她在脚色身上挖掘了一种“寂静的庄严感”。
.影片的建造预算约为6000万美圆。
.在亚当斯与瓦尔茨的脚色作画的一幕场景中,实在的Margaret Keane本人现身客串,她就做坐在亚当斯死后的长椅上。
.这是自从波顿2001年碰到他后来的妻子海伦娜以后,执导的第一部没有海伦娜出演脚色的影片。
-------------------------

  1. Video
  2. ID                                       : 1
  3. Format                                   : AVC
  4. Format/Info                              : Advanced Video Codec
  5. Format profile                           : [email protected]
  6. Format settings, CABAC                   : Yes
  7. Format settings, ReFrames                : 2 frames
  8. Codec ID                                 : V_MPEG4/ISO/AVC
  9. Duration                                 : 1h 45mn
  10. Bit rate mode                            : Variable
  11. Width                                    : 1 920 pixels
  12. Height                                   : 1 080 pixels
  13. Display aspect ratio                     : 16:9
  14. Frame rate mode                          : Constant
  15. Frame rate                               : 23.976 fps
  16. Color space                              : YUV
  17. Chroma subsampling                       : 4:2:0
  18. Bit depth                                : 8 bits
  19. Scan type                                : Progressive
  20. Title                                    : Big.Eyes.2014.1080p.BluRay.REMUX.AVC.DTS-HD.MA.5.1-RARBG
  21. Language                                 : English
  22. Default                                  : No
  23. Forced                                   : No

  24. Audio #1
  25. ID                                       : 2
  26. Format                                   : DTS
  27. Format/Info                              : Digital Theater Systems
  28. Format profile                           : MA / Core
  29. Mode                                     : 16
  30. Format settings, Endianness              : Big
  31. Codec ID                                 : A_DTS
  32. Duration                                 : 1h 45mn
  33. Bit rate mode                            : Variable
  34. Bit rate                                 : Unknown / 1 509 Kbps
  35. Channel(s)                               : 6 channels
  36. Channel positions                        : Front: L C R, Side: L R, LFE
  37. Sampling rate                            : 48.0 KHz
  38. Bit depth                                : 24 bits
  39. Compression mode                         : Lossless / Lossy
  40. Title                                    : Big.Eyes.2014.1080p.BluRay.REMUX.AVC.DTS-HD.MA.5.1-RARBG
  41. Language                                 : English
  42. Default                                  : Yes
  43. Forced                                   : No

  44. Audio #2
  45. ID                                       : 3
  46. Format                                   : DTS
  47. Format/Info                              : Digital Theater Systems
  48. Mode                                     : 16
  49. Format settings, Endianness              : Big
  50. Codec ID                                 : A_DTS
  51. Duration                                 : 1h 45mn
  52. Bit rate mode                            : Constant
  53. Bit rate                                 : 1 509 Kbps
  54. Channel(s)                               : 6 channels
  55. Channel positions                        : Front: L C R, Side: L R, LFE
  56. Sampling rate                            : 48.0 KHz
  57. Bit depth                                : 24 bits
  58. Compression mode                         : Lossy
  59. Stream size                              : 1.11 GiB (5%)
  60. Title                                    : Big.Eyes.2014.1080p.BluRay.REMUX.AVC.DTS-HD.MA.5.1-RARBG
  61. Language                                 : English
  62. Default                                  : No
  63. Forced                                   : No

  64. Audio #3
  65. ID                                       : 4
  66. Format                                   : AC-3
  67. Format/Info                              : Audio Coding 3
  68. Mode extension                           : CM (complete main)
  69. Format settings, Endianness              : Big
  70. Codec ID                                 : A_AC3
  71. Duration                                 : 1h 45mn
  72. Bit rate mode                            : Constant
  73. Bit rate                                 : 448 Kbps
  74. Channel(s)                               : 6 channels
  75. Channel positions                        : Front: L C R, Side: L R, LFE
  76. Sampling rate                            : 48.0 KHz
  77. Bit depth                                : 16 bits
  78. Compression mode                         : Lossy
  79. Delay relative to video                  : 167ms
  80. Stream size                              : 339 MiB (1%)
  81. Title                                    : Big.Eyes.2014.1080p.BluRay.REMUX.AVC.DTS-HD.MA.5.1-RARBG
  82. Language                                 : Spanish
  83. Default                                  : No
  84. Forced                                   : No

复制代码

复制代码

-------------------------
◎出色剧照
100259b88th1d8v1wovu33.jpg
100300riyxplsnzisyngd6.jpg
100301wq3tc1cttqimjccg.jpg

-------------------------
[以上高清电影剧照来自互联网,不代表此片高清剧照]
慎重声明:本站供给的一切高清电影作品均是在网上汇集,任何触及贸易盈利目标均不得利用,否则发生的一切结果将由您自己承当!本站将差池本站的任何内容负任何法令义务!该下载内容仅做宽带测试利用,请鄙人载后24小时内删除。请采办正
版!
-------------------------
◎种子下载地址
旅客,假如您要检察本帖隐藏内容请答复
回复

使用道具 举报

懒得打字嘛,点击右侧快捷回复 【右侧内容,后台自定义】
您需要登录后才可以回帖 登录 | 立即加入

本版积分规则

Archiver|小黑屋| 蓝光电影网 |网站地图

Copyright © 2021 Comsenz Inc. Powered by 蓝光电影网

蓝光电影网

本站内容由用户自主分享和转载自互联网,转载目的在于传递更多信息,并不代表本网赞同其观点和对其真实性负责。

如有侵权、违反国家法律政策行为,请联系我们,我们会第一时间及时清除和处理!

举报反馈邮箱:[email protected]

快速回复 返回顶部 返回列表