找回密码

蓝光电影网

查看: 5170|回复: 12

[2015][美国][剧情][五十度灰/格雷的五十道色戒/格雷的五十道阴影][未剪辑版REMUX][1080P-25.4G][MKV]DTS

  [复制链接]
蓝光币
382
发表于 2015-9-12 19:46:56 | 显示全部楼层 |阅读模式

[2015][美国][剧情][五十度灰/格雷的五十道色戒/格雷的五十道阴影][未剪辑版REMUX][1080P-25.4G][MKV]DTS
101046qkazzem1ekkr1a2j.jpg

◎影片根基信息
巨细: 25.4G
清楚度: 1080P
视频: MKV
制片国家/地域: 美国
说话: 英语
上映日期: 2015-02-09(洛杉矶首映) / 2015-02-13(美国)
片长: 125分钟
别名: 格雷的五十道色戒(港) / 格雷的五十道阴影(台)
导演: 萨姆·泰勒·约翰逊
编剧: 凯莉·马塞尔 / E·L·詹姆斯
主演: 詹米·多南 / 达科塔·约翰逊 / 詹妮弗·艾莉 / 卢克·葛莱姆斯 / 马西娅·盖伊·哈登 / 更多...
范例: 剧情 / 恋爱 / 情色
影片: Fifty.Shades.of.Grey.2015.UNRATED.1080p.BluRay.REMUX.AVC.DTS-HD.MA.5.1-RARBG

◎剧情简介
       女大门生安娜是名校报记者,一次拜候俊朗有型、年轻有才的企业钜子格雷,瞬即被其迷倒,堕进情网。不外安娜渐渐发现格雷对性爱的特别嗜好,而格雷迷恋暴力性爱、布满控制欲的背后本来有着不成告人的身分,令两人陷于酷爱与冲突之间……安娜为了爱人情愿踏足自己从未预感的性爱疆界,但是此举能否真的可以感导格雷,让他抛开曩昔,与安娜谱出实在的浪漫恋曲?
-------------------------

  1. Video
  2. ID                                       : 1
  3. Format                                   : AVC
  4. Format/Info                              : Advanced Video Codec
  5. Format profile                           : [email protected]
  6. Format settings, CABAC                   : Yes
  7. Format settings, ReFrames                : 4 frames
  8. Codec ID                                 : V_MPEG4/ISO/AVC
  9. Duration                                 : 2h 8mn
  10. Bit rate mode                            : Variable
  11. Maximum bit rate                         : 35.0 Mbps
  12. Width                                    : 1 920 pixels
  13. Height                                   : 1 080 pixels
  14. Display aspect ratio                     : 16:9
  15. Frame rate mode                          : Constant
  16. Frame rate                               : 23.976 fps
  17. Color space                              : YUV
  18. Chroma subsampling                       : 4:2:0
  19. Bit depth                                : 8 bits
  20. Scan type                                : Progressive
  21. Title                                    : Fifty.Shades.of.Grey.2015.UNRATED.1080p.BluRay.REMUX.AVC.DTS-HD.MA.5.1-RARBG
  22. Language                                 : English
  23. Default                                  : No
  24. Forced                                   : No

  25. Audio #1
  26. ID                                       : 2
  27. Format                                   : DTS
  28. Format/Info                              : Digital Theater Systems
  29. Format profile                           : MA / Core
  30. Mode                                     : 16
  31. Format settings, Endianness              : Big
  32. Codec ID                                 : A_DTS
  33. Duration                                 : 2h 8mn
  34. Bit rate mode                            : Variable
  35. Bit rate                                 : Unknown / 1 509 Kbps
  36. Channel(s)                               : 6 channels
  37. Channel positions                        : Front: L C R, Side: L R, LFE
  38. Sampling rate                            : 48.0 KHz
  39. Bit depth                                : 24 bits
  40. Compression mode                         : Lossless / Lossy
  41. Title                                    : Fifty.Shades.of.Grey.2015.UNRATED.1080p.BluRay.REMUX.AVC.DTS-HD.MA.5.1-RARBG
  42. Language                                 : English
  43. Default                                  : Yes
  44. Forced                                   : No

  45. Audio #2
  46. ID                                       : 3
  47. Format                                   : DTS
  48. Format/Info                              : Digital Theater Systems
  49. Mode                                     : 16
  50. Format settings, Endianness              : Big
  51. Codec ID                                 : A_DTS
  52. Duration                                 : 2h 8mn
  53. Bit rate mode                            : Constant
  54. Bit rate                                 : 1 509 Kbps
  55. Channel(s)                               : 6 channels
  56. Channel positions                        : Front: L C R, Side: L R, LFE
  57. Sampling rate                            : 48.0 KHz
  58. Bit depth                                : 24 bits
  59. Compression mode                         : Lossy
  60. Stream size                              : 1.35 GiB (5%)
  61. Title                                    : Fifty.Shades.of.Grey.2015.UNRATED.1080p.BluRay.REMUX.AVC.DTS-HD.MA.5.1-RARBG
  62. Language                                 : English
  63. Default                                  : No
  64. Forced                                   : No

  65. Audio #3
  66. ID                                       : 4
  67. Format                                   : DTS
  68. Format/Info                              : Digital Theater Systems
  69. Mode                                     : 16
  70. Format settings, Endianness              : Big
  71. Codec ID                                 : A_DTS
  72. Duration                                 : 2h 8mn
  73. Bit rate mode                            : Constant
  74. Bit rate                                 : 768 Kbps
  75. Channel(s)                               : 6 channels
  76. Channel positions                        : Front: L C R, Side: L R, LFE
  77. Sampling rate                            : 48.0 KHz
  78. Bit depth                                : 24 bits
  79. Compression mode                         : Lossy
  80. Stream size                              : 706 MiB (3%)
  81. Title                                    : Fifty.Shades.of.Grey.2015.UNRATED.1080p.BluRay.REMUX.AVC.DTS-HD.MA.5.1-RARBG
  82. Language                                 : Spanish
  83. Default                                  : No
  84. Forced                                   : No

  85. Audio #4
  86. ID                                       : 5
  87. Format                                   : DTS
  88. Format/Info                              : Digital Theater Systems
  89. Mode                                     : 16
  90. Format settings, Endianness              : Big
  91. Codec ID                                 : A_DTS
  92. Duration                                 : 2h 8mn
  93. Bit rate mode                            : Constant
  94. Bit rate                                 : 768 Kbps
  95. Channel(s)                               : 6 channels
  96. Channel positions                        : Front: L C R, Side: L R, LFE
  97. Sampling rate                            : 48.0 KHz
  98. Bit depth                                : 24 bits
  99. Compression mode                         : Lossy
  100. Stream size                              : 706 MiB (3%)
  101. Title                                    : Fifty.Shades.of.Grey.2015.UNRATED.1080p.BluRay.REMUX.AVC.DTS-HD.MA.5.1-RARBG
  102. Language                                 : French
  103. Default                                  : No
  104. Forced                                   : No
复制代码

复制代码

-------------------------
◎出色剧照
100948e0ieyneff43jffcy.jpg
100950lvgucjjtuihiap4a.jpg
100955mkw9vgg6v66vekv4.jpg

-------------------------
[以上高清电影剧照来自互联网,不代表此片高清剧照]
慎重声明:本站供给的一切高清电影作品均是在网上汇集,任何触及贸易盈利目标均不得利用,否则发生的一切结果将由您自己承当!本站将差池本站的任何内容负任何法令义务!该下载内容仅做宽带测试利用,请鄙人载后24小时内删除。请采办正
版!
-------------------------
◎种子下载地址
旅客,假如您要检察本帖隐藏内容请答复
回复

使用道具 举报

蓝光币
32
发表于 2018-5-29 09:39:24 | 显示全部楼层

谢谢分享
回复

使用道具 举报

蓝光币
30
发表于 2018-11-13 21:12:02 | 显示全部楼层
强烈支持楼主ing……
回复 支持 反对

使用道具 举报

蓝光币
330
发表于 2019-11-23 23:12:39 | 显示全部楼层
楼主发贴辛苦了,谢谢楼主分享!我觉得蓝光电影网是注册对了!
回复 支持 反对

使用道具 举报

蓝光币
322
发表于 2019-12-25 21:53:48 | 显示全部楼层
蔚件极为剪辑
回复 支持 反对

使用道具 举报

蓝光币
14
发表于 2020-1-11 10:45:45 | 显示全部楼层
真是难得给力的帖子啊。
回复 支持 反对

使用道具 举报

蓝光币
0
发表于 2020-12-17 17:55:34 | 显示全部楼层
太好了。
回复

使用道具 举报

蓝光币
6
发表于 2021-1-19 21:47:23 | 显示全部楼层
度灰度灰度灰度灰,感谢分享
回复 支持 反对

使用道具 举报

蓝光币
17
发表于 2021-7-17 17:25:31 | 显示全部楼层
谢谢楼主的分享谢谢
回复 支持 反对

使用道具 举报

蓝光币
33
发表于 2021-7-17 23:50:26 | 显示全部楼层
感谢分享
回复

使用道具 举报

懒得打字嘛,点击右侧快捷回复 【右侧内容,后台自定义】
您需要登录后才可以回帖 登录 | 立即加入

本版积分规则

Archiver|小黑屋| 蓝光电影网 |网站地图

Copyright © 2021 Comsenz Inc. Powered by 蓝光电影网

蓝光电影网

本站内容由用户自主分享和转载自互联网,转载目的在于传递更多信息,并不代表本网赞同其观点和对其真实性负责。

如有侵权、违反国家法律政策行为,请联系我们,我们会第一时间及时清除和处理!

举报反馈邮箱:[email protected]

快速回复 返回顶部 返回列表