找回密码

蓝光电影网

查看: 706|回复: 0

[2014][美国][恐怖][死亡占卜/美版通灵][REMUX][1080P-24.43G][MKV]DTS

[复制链接]
蓝光币
382
发表于 2015-9-12 19:52:30 | 显示全部楼层 |阅读模式

[2014][美国][可骇][灭亡占卜/美版通灵][REMUX][1080P-24.43G][MKV]DTS
101442u3h3yel8pkkds3y3.jpg

◎影片根基信息
巨细: 24.43G
清楚度: 1080P
视频: MKV
豆瓣评分: 5.1
导演: 斯蒂尔斯·怀特
编剧: 亚当·霍罗威茨 / 爱德华·基齐斯
主演: 奥利维亚·库克 / 安娜·科托 / 达伦·卡加索夫 / 比安卡·A·桑托斯 / 道格拉斯·史姑娘 / 更多...
范例: 行动 / 惊悚 / 可骇 / 冒险
制片国家/地域: 美国
说话: 英语
上映日期: 2014-10-24(美国)
片长: 89分钟
别名: 灭亡占卜(港) / 美版通灵 / 通灵
影片: Ouija.2014.1080p.BluRay.REMUX.AVC.DTS-HD.MA.5.1-RARBG

◎剧情简介
       有没有想过挚爱的人死后,还可以跟他们对话?莲妮没法放心好友黛比古怪灭亡,决议调集几个朋友,透过有西洋碟仙之称的‘占卜板’,尝试毗连灵界与黛比交换,为她寻冤。岂料怪事持续不断,同伴逐一遇害!究竟是黛比显灵?还是此外鬼魂作怪?你以为只是个游戏,却误惹上极恶邪灵……价格,你付得起吗?
-------------------------

  1. Video
  2. ID                                       : 1
  3. Format                                   : AVC
  4. Format/Info                              : Advanced Video Codec
  5. Format profile                           : [email protected]
  6. Format settings, CABAC                   : Yes
  7. Format settings, ReFrames                : 4 frames
  8. Codec ID                                 : V_MPEG4/ISO/AVC
  9. Duration                                 : 1h 29mn
  10. Bit rate mode                            : Variable
  11. Maximum bit rate                         : 35.0 Mbps
  12. Width                                    : 1 920 pixels
  13. Height                                   : 1 080 pixels
  14. Display aspect ratio                     : 16:9
  15. Frame rate mode                          : Constant
  16. Frame rate                               : 23.976 fps
  17. Color space                              : YUV
  18. Chroma subsampling                       : 4:2:0
  19. Bit depth                                : 8 bits
  20. Scan type                                : Progressive
  21. Language                                 : English
  22. Default                                  : No
  23. Forced                                   : No

  24. Audio #1
  25. ID                                       : 2
  26. Format                                   : DTS
  27. Format/Info                              : Digital Theater Systems
  28. Format profile                           : MA / Core
  29. Mode                                     : 16
  30. Format settings, Endianness              : Big
  31. Codec ID                                 : A_DTS
  32. Duration                                 : 1h 29mn
  33. Bit rate mode                            : Variable
  34. Bit rate                                 : Unknown / 1 509 Kbps
  35. Channel(s)                               : 6 channels
  36. Channel positions                        : Front: L C R, Side: L R, LFE
  37. Sampling rate                            : 48.0 KHz
  38. Bit depth                                : 24 bits
  39. Compression mode                         : Lossless / Lossy
  40. Title                                    : Surround 5.1
  41. Language                                 : English
  42. Default                                  : Yes
  43. Forced                                   : No

  44. Audio #2
  45. ID                                       : 3
  46. Format                                   : DTS
  47. Format/Info                              : Digital Theater Systems
  48. Mode                                     : 16
  49. Format settings, Endianness              : Big
  50. Codec ID                                 : A_DTS
  51. Duration                                 : 1h 29mn
  52. Bit rate mode                            : Constant
  53. Bit rate                                 : 1 509 Kbps
  54. Channel(s)                               : 6 channels
  55. Channel positions                        : Front: L C R, Side: L R, LFE
  56. Sampling rate                            : 48.0 KHz
  57. Bit depth                                : 24 bits
  58. Compression mode                         : Lossy
  59. Stream size                              : 966 MiB (4%)
  60. Title                                    : Surround 5.1
  61. Language                                 : English
  62. Default                                  : No
  63. Forced                                   : No

  64. Audio #3
  65. ID                                       : 4
  66. Format                                   : DTS
  67. Format/Info                              : Digital Theater Systems
  68. Mode                                     : 16
  69. Format settings, Endianness              : Big
  70. Codec ID                                 : A_DTS
  71. Duration                                 : 1h 29mn
  72. Bit rate mode                            : Constant
  73. Bit rate                                 : 768 Kbps
  74. Channel(s)                               : 6 channels
  75. Channel positions                        : Front: L C R, Side: L R, LFE
  76. Sampling rate                            : 48.0 KHz
  77. Bit depth                                : 24 bits
  78. Compression mode                         : Lossy
  79. Stream size                              : 492 MiB (2%)
  80. Title                                    : Surround 5.1
  81. Language                                 : Spanish
  82. Default                                  : No
  83. Forced                                   : No

  84. Audio #4
  85. ID                                       : 5
  86. Format                                   : DTS
  87. Format/Info                              : Digital Theater Systems
  88. Mode                                     : 16
  89. Format settings, Endianness              : Big
  90. Codec ID                                 : A_DTS
  91. Duration                                 : 1h 29mn
  92. Bit rate mode                            : Constant
  93. Bit rate                                 : 768 Kbps
  94. Channel(s)                               : 6 channels
  95. Channel positions                        : Front: L C R, Side: L R, LFE
  96. Sampling rate                            : 48.0 KHz
  97. Bit depth                                : 24 bits
  98. Compression mode                         : Lossy
  99. Stream size                              : 492 MiB (2%)
  100. Title                                    : Surround 5.1
  101. Language                                 : French
  102. Default                                  : No
  103. Forced                                   : No

  104. Audio #5
  105. ID                                       : 6
  106. Format                                   : AC-3
  107. Format/Info                              : Audio Coding 3
  108. Format profile                           : Dolby Digital
  109. Mode extension                           : CM (complete main)
  110. Format settings, Endianness              : Big
  111. Codec ID                                 : A_AC3
  112. Duration                                 : 1h 29mn
  113. Bit rate mode                            : Constant
  114. Bit rate                                 : 192 Kbps
  115. Channel(s)                               : 2 channels
  116. Channel positions                        : Front: L R
  117. Sampling rate                            : 48.0 KHz
  118. Bit depth                                : 16 bits
  119. Compression mode                         : Lossy
  120. Stream size                              : 123 MiB (0%)
  121. Title                                    : Stereo
  122. Language                                 : English
  123. Default                                  : No
  124. Forced                                   : No

  125. Text #1
  126. ID                                       : 7
  127. Format                                   : PGS
  128. Codec ID                                 : S_HDMV/PGS
  129. Codec ID/Info                            : The same subtitle format used on BDs/HD-DVDs
  130. Language                                 : English
  131. Default                                  : No
  132. Forced                                   : No

  133. Text #2
  134. ID                                       : 9
  135. Format                                   : PGS
  136. Codec ID                                 : S_HDMV/PGS
  137. Codec ID/Info                            : The same subtitle format used on BDs/HD-DVDs
  138. Language                                 : Spanish
  139. Default                                  : No
  140. Forced                                   : No

  141. Text #3
  142. ID                                       : 11
  143. Format                                   : PGS
  144. Codec ID                                 : S_HDMV/PGS
  145. Codec ID/Info                            : The same subtitle format used on BDs/HD-DVDs
  146. Language                                 : French
  147. Default                                  : No
  148. Forced                                   : No

  149. Text #4
  150. ID                                       : 13
  151. Format                                   : PGS
  152. Codec ID                                 : S_HDMV/PGS
  153. Codec ID/Info                            : The same subtitle format used on BDs/HD-DVDs
  154. Language                                 : Spanish
  155. Default                                  : No
  156. Forced                                   : No

  157. Text #5
  158. ID                                       : 15
  159. Format                                   : PGS
  160. Codec ID                                 : S_HDMV/PGS
  161. Codec ID/Info                            : The same subtitle format used on BDs/HD-DVDs
  162. Language                                 : French
  163. Default                                  : No
  164. Forced                                   : No

  165. Menu
  166. 00:00:00.000                             : en:Chapter 01
  167. 00:05:22.822                             : en:Chapter 02
  168. 00:09:30.361                             : en:Chapter 03
  169. 00:11:55.673                             : en:Chapter 04
  170. 00:16:27.152                             : en:Chapter 05
  171. 00:18:56.802                             : en:Chapter 06
  172. 00:24:13.827                             : en:Chapter 07
  173. 00:26:07.357                             : en:Chapter 08
  174. 00:32:09.344                             : en:Chapter 09
  175. 00:36:52.126                             : en:Chapter 10
  176. 00:41:43.125                             : en:Chapter 11
  177. 00:44:13.942                             : en:Chapter 12
  178. 00:50:08.463                             : en:Chapter 13
  179. 00:55:04.009                             : en:Chapter 14
  180. 01:00:28.625                             : en:Chapter 15
  181. 01:05:12.199                             : en:Chapter 16
  182. 01:10:02.948                             : en:Chapter 17
  183. 01:14:18.495                             : en:Chapter 18
  184. 01:20:20.440                             : en:Chapter 19
  185. 01:22:46.461                             : en:Chapter 20
复制代码

复制代码

-------------------------
◎出色剧照
101421g9rf7va9axflrcao.jpg
101424oi1ffgtfffgtj9gb.jpg
101426ytk880lt8k77j3p8.jpg

-------------------------
[以上高清电影剧照来自互联网,不代表此片高清剧照]
慎重声明:本站供给的一切高清电影作品均是在网上汇集,任何触及贸易盈利目标均不得利用,否则发生的一切结果将由您自己承当!本站将差池本站的任何内容负任何法令义务!该下载内容仅做宽带测试利用,请鄙人载后24小时内删除。请采办正
版!
-------------------------
◎种子下载地址
旅客,假如您要检察本帖隐藏内容请答复
回复

使用道具 举报

懒得打字嘛,点击右侧快捷回复 【右侧内容,后台自定义】
您需要登录后才可以回帖 登录 | 立即加入

本版积分规则

Archiver|小黑屋| 蓝光电影网 |网站地图

Copyright © 2021 Comsenz Inc. Powered by 蓝光电影网

蓝光电影网

本站内容由用户自主分享和转载自互联网,转载目的在于传递更多信息,并不代表本网赞同其观点和对其真实性负责。

如有侵权、违反国家法律政策行为,请联系我们,我们会第一时间及时清除和处理!

举报反馈邮箱:[email protected]

快速回复 返回顶部 返回列表