找回密码

蓝光电影网

查看: 478|回复: 0

[2014][英国][剧情][塞尔玛游行/逐梦大道/塞尔玛][REMUX][1080P-30.76G][MKV]DTS

[复制链接]
蓝光币
382
发表于 2015-9-12 19:55:19 | 显示全部楼层 |阅读模式

[2014][英国][剧情][塞尔玛游行/逐梦大道/塞尔玛][REMUX][1080P-30.76G][MKV]DTS
005307n6moz5qzzmmoqx9o.jpg

◎影片根基信息
巨细: 30.76G
清楚度: 1080P
视频: MKV
豆瓣评分: 7.1
导演: 艾娃·德约列
编剧: 艾娃·德约列 / Paul Webb
主演: 蒂姆·罗斯 / 小库珀·古丁 / 汤姆·威尔金森 / 科曼 / 大卫·奥伊罗 / 更多...
范例: 剧情 / 历史
制片国家/地域: 英国 / 美国
说话: 英语
上映日期: 2014-12-25(美国)
片长: 122分钟
别名: 塞尔玛游行 / 逐梦大道(台)
影片: Selma.2014.1080p.BluRay.REMUX.AVC.DTS-HD.MA.5.1-RARBG

◎剧情简介
       《塞尔玛》的故事发生在上世纪60年月,曾构造过著名的蒙哥马利罢车活动的马丁·路德·金,号令全市黑人对公共法停止抵抗,迫使法院取消地方公共运输工具上的座位隔离。1963年他在都城华盛顿构造了一场争取黑人权益的游行,还在塞尔玛、蒙哥马利和阿拉巴马举行了三次声势浩荡的抗议声讨。汤姆·威尔金森在片中饰演美国总统林顿·B·约翰逊总统,约翰逊起头是一个种族主义者,后来看到了自己的心里,终极与马丁·路德·金站在一路,否决种族隔离。蒂姆·罗斯在片中饰演阿拉巴马州长乔治·华莱士。这个极具争议的美国地方带领人,曾发出过“现在隔离!明天隔离!永久隔离!”的著名口号,在《塞尔玛》这部电影中,这个脚色明显是站到了马丁的对峙面。
-------------------------

  1. Video
  2. ID                                       : 1
  3. Format                                   : AVC
  4. Format/Info                              : Advanced Video Codec
  5. Format profile                           : [email protected]
  6. Format settings, CABAC                   : Yes
  7. Format settings, ReFrames                : 2 frames
  8. Format settings, GOP                     : M=1, N=10
  9. Codec ID                                 : V_MPEG4/ISO/AVC
  10. Duration                                 : 2h 8mn
  11. Bit rate mode                            : Variable
  12. Width                                    : 1 920 pixels
  13. Height                                   : 1 080 pixels
  14. Display aspect ratio                     : 16:9
  15. Frame rate mode                          : Constant
  16. Frame rate                               : 23.976 fps
  17. Color space                              : YUV
  18. Chroma subsampling                       : 4:2:0
  19. Bit depth                                : 8 bits
  20. Scan type                                : Progressive
  21. Title                                    : Selma.2014.1080p.BluRay.REMUX.AVC.DTS-HD.MA.5.1-RARBG
  22. Language                                 : English
  23. Default                                  : No
  24. Forced                                   : No

  25. Audio #1
  26. ID                                       : 2
  27. Format                                   : DTS
  28. Format/Info                              : Digital Theater Systems
  29. Format profile                           : MA / Core
  30. Mode                                     : 16
  31. Format settings, Endianness              : Big
  32. Codec ID                                 : A_DTS
  33. Duration                                 : 2h 8mn
  34. Bit rate mode                            : Variable
  35. Bit rate                                 : Unknown / 1 509 Kbps
  36. Channel(s)                               : 6 channels
  37. Channel positions                        : Front: L C R, Side: L R, LFE
  38. Sampling rate                            : 48.0 KHz
  39. Bit depth                                : 24 bits
  40. Compression mode                         : Lossless / Lossy
  41. Title                                    : Selma.2014.1080p.BluRay.REMUX.AVC.DTS-HD.MA.5.1-RARBG
  42. Language                                 : English
  43. Default                                  : Yes
  44. Forced                                   : No

  45. Audio #2
  46. ID                                       : 3
  47. Format                                   : DTS
  48. Format/Info                              : Digital Theater Systems
  49. Mode                                     : 16
  50. Format settings, Endianness              : Big
  51. Codec ID                                 : A_DTS
  52. Duration                                 : 2h 8mn
  53. Bit rate mode                            : Constant
  54. Bit rate                                 : 1 509 Kbps
  55. Channel(s)                               : 6 channels
  56. Channel positions                        : Front: L C R, Side: L R, LFE
  57. Sampling rate                            : 48.0 KHz
  58. Bit depth                                : 24 bits
  59. Compression mode                         : Lossy
  60. Stream size                              : 1.35 GiB (4%)
  61. Title                                    : Selma.2014.1080p.BluRay.REMUX.AVC.DTS-HD.MA.5.1-RARBG
  62. Language                                 : English
  63. Default                                  : No
  64. Forced                                   : No

  65. Audio #3
  66. ID                                       : 4
  67. Format                                   : AC-3
  68. Format/Info                              : Audio Coding 3
  69. Mode extension                           : CM (complete main)
  70. Format settings, Endianness              : Big
  71. Codec ID                                 : A_AC3
  72. Duration                                 : 2h 8mn
  73. Bit rate mode                            : Constant
  74. Bit rate                                 : 640 Kbps
  75. Channel(s)                               : 6 channels
  76. Channel positions                        : Front: L C R, Side: L R, LFE
  77. Sampling rate                            : 48.0 KHz
  78. Bit depth                                : 16 bits
  79. Compression mode                         : Lossy
  80. Stream size                              : 587 MiB (2%)
  81. Title                                    : Selma.2014.1080p.BluRay.REMUX.AVC.DTS-HD.MA.5.1-RARBG
  82. Language                                 : French
  83. Default                                  : No
  84. Forced                                   : No

  85. Audio #4
  86. ID                                       : 5
  87. Format                                   : AC-3
  88. Format/Info                              : Audio Coding 3
  89. Mode extension                           : CM (complete main)
  90. Format settings, Endianness              : Big
  91. Codec ID                                 : A_AC3
  92. Duration                                 : 2h 8mn
  93. Bit rate mode                            : Constant
  94. Bit rate                                 : 640 Kbps
  95. Channel(s)                               : 6 channels
  96. Channel positions                        : Front: L C R, Side: L R, LFE
  97. Sampling rate                            : 48.0 KHz
  98. Bit depth                                : 16 bits
  99. Compression mode                         : Lossy
  100. Stream size                              : 587 MiB (2%)
  101. Title                                    : Selma.2014.1080p.BluRay.REMUX.AVC.DTS-HD.MA.5.1-RARBG
  102. Language                                 : English
  103. Default                                  : No
  104. Forced                                   : No

  105. Audio #5
  106. ID                                       : 6
  107. Format                                   : AC-3
  108. Format/Info                              : Audio Coding 3
  109. Format profile                           : Dolby Digital
  110. Mode extension                           : CM (complete main)
  111. Format settings, Endianness              : Big
  112. Codec ID                                 : A_AC3
  113. Duration                                 : 2h 8mn
  114. Bit rate mode                            : Constant
  115. Bit rate                                 : 224 Kbps
  116. Channel(s)                               : 2 channels
  117. Channel positions                        : Front: L R
  118. Sampling rate                            : 48.0 KHz
  119. Bit depth                                : 16 bits
  120. Compression mode                         : Lossy
  121. Stream size                              : 205 MiB (1%)
  122. Title                                    : Selma.2014.1080p.BluRay.REMUX.AVC.DTS-HD.MA.5.1-RARBG
  123. Language                                 : English
  124. Default                                  : No
  125. Forced                                   : No

  126. Audio #6
  127. ID                                       : 7
  128. Format                                   : AC-3
  129. Format/Info                              : Audio Coding 3
  130. Format profile                           : Dolby Digital
  131. Mode extension                           : CM (complete main)
  132. Format settings, Endianness              : Big
  133. Codec ID                                 : A_AC3
  134. Duration                                 : 2h 8mn
  135. Bit rate mode                            : Constant
  136. Bit rate                                 : 224 Kbps
  137. Channel(s)                               : 2 channels
  138. Channel positions                        : Front: L R
  139. Sampling rate                            : 48.0 KHz
  140. Bit depth                                : 16 bits
  141. Compression mode                         : Lossy
  142. Stream size                              : 205 MiB (1%)
  143. Title                                    : Selma.2014.1080p.BluRay.REMUX.AVC.DTS-HD.MA.5.1-RARBG
  144. Language                                 : English
  145. Default                                  : No
  146. Forced                                   : No

  147. Text #1
  148. ID                                       : 8
  149. Format                                   : PGS
  150. Muxing mode                              : zlib
  151. Codec ID                                 : S_HDMV/PGS
  152. Codec ID/Info                            : The same subtitle format used on BDs/HD-DVDs
  153. Language                                 : English
  154. Default                                  : No
  155. Forced                                   : No

  156. Text #2
  157. ID                                       : 9
  158. Format                                   : PGS
  159. Muxing mode                              : zlib
  160. Codec ID                                 : S_HDMV/PGS
  161. Codec ID/Info                            : The same subtitle format used on BDs/HD-DVDs
  162. Language                                 : English
  163. Default                                  : No
  164. Forced                                   : No

  165. Text #3
  166. ID                                       : 10
  167. Format                                   : PGS
  168. Muxing mode                              : zlib
  169. Codec ID                                 : S_HDMV/PGS
  170. Codec ID/Info                            : The same subtitle format used on BDs/HD-DVDs
  171. Language                                 : French
  172. Default                                  : No
  173. Forced                                   : No

  174. Text #4
  175. ID                                       : 11
  176. Format                                   : PGS
  177. Muxing mode                              : zlib
  178. Codec ID                                 : S_HDMV/PGS
  179. Codec ID/Info                            : The same subtitle format used on BDs/HD-DVDs
  180. Language                                 : French
  181. Default                                  : No
  182. Forced                                   : No

  183. Text #5
  184. ID                                       : 12
  185. Format                                   : PGS
  186. Muxing mode                              : zlib
  187. Codec ID                                 : S_HDMV/PGS
  188. Codec ID/Info                            : The same subtitle format used on BDs/HD-DVDs
  189. Language                                 : Spanish
  190. Default                                  : No
  191. Forced                                   : No

  192. Menu
  193. 00:00:00.000                             : en:Chapter 01
  194. 00:09:19.392                             : en:Chapter 02
  195. 00:13:34.271                             : en:Chapter 03
  196. 00:17:25.544                             : en:Chapter 04
  197. 00:25:48.547                             : en:Chapter 05
  198. 00:32:36.788                             : en:Chapter 06
  199. 00:45:28.308                             : en:Chapter 07
  200. 00:56:27.133                             : en:Chapter 08
  201. 01:10:35.397                             : en:Chapter 09
  202. 01:19:50.035                             : en:Chapter 10
  203. 01:25:43.555                             : en:Chapter 11
  204. 01:33:33.316                             : en:Chapter 12
  205. 01:41:50.312                             : en:Chapter 13
  206. 01:48:56.780                             : en:Chapter 14
  207. 01:53:34.516                             : en:Chapter 15
  208. 01:59:54.478                             : en:Chapter 16
复制代码

复制代码

-------------------------
◎出色剧照
005304h9ft9wkgb2wyz2by.jpg
005305jf9ux81dey9ejezf.jpg
005306rxw1kipcis6pun6u.jpg

-------------------------
[以上高清电影剧照来自互联网,不代表此片高清剧照]
慎重声明:本站供给的一切高清电影作品均是在网上汇集,任何触及贸易盈利目标均不得利用,否则发生的一切结果将由您自己承当!本站将差池本站的任何内容负任何法令义务!该下载内容仅做宽带测试利用,请鄙人载后24小时内删除。请采办正
版!
-------------------------
◎种子下载地址
旅客,假如您要检察本帖隐藏内容请答复
回复

使用道具 举报

懒得打字嘛,点击右侧快捷回复 【右侧内容,后台自定义】
您需要登录后才可以回帖 登录 | 立即加入

本版积分规则

Archiver|小黑屋| 蓝光电影网 |网站地图

Copyright © 2021 Comsenz Inc. Powered by 蓝光电影网

蓝光电影网

本站内容由用户自主分享和转载自互联网,转载目的在于传递更多信息,并不代表本网赞同其观点和对其真实性负责。

如有侵权、违反国家法律政策行为,请联系我们,我们会第一时间及时清除和处理!

举报反馈邮箱:[email protected]

快速回复 返回顶部 返回列表