找回密码

蓝光电影网

查看: 807|回复: 2

[惊悚][隔壁的男孩The.Boy.Next.Door.2015.1080p.BluRay.REMUX.AVC.DTS-HD.MA.5.1-RARBG][1080P-24.65G][MKV]DTS

[复制链接]
蓝光币
382
发表于 2015-9-12 20:02:17 | 显示全部楼层 |阅读模式

[惊悚][隔邻的男孩The.Boy.Next.Door.2015.1080p.BluRay.REMUX.AVC.DTS-HD.MA.5.1-RARBG][1080P-24.65G][MKV]DTS
102304knhz9rg6hgll946l.jpg

◎影片根基信息
◎译  名 隔邻的男孩/隔邻的男孩杀过来(台)
◎片  名 The Boy Next Door
◎年  代 2015
◎国  家 美国
◎类  别 惊悚
◎语  言 英语
◎字  幕 英文
◎片  长 01:31:05
◎导  演 罗伯·科恩 Rob Cohen   
◎主  演 詹妮弗·洛佩兹 Jennifer Lopez   ...Claire Peterson
      瑞安·古兹曼 Ryan Guzman   ...Noah Sandborn
      伊恩·纳尔逊 Ian Nelson   ...Kevin Peterson
      约翰·考伯特 John Corbett   ...Garrett Peterson
      克里斯汀·肯诺恩斯 Kristin Chenoweth   ...Vicky Lansing
      Lexi Atkins   ...Allie Callahan
      希尔·哈勃 Hill Harper   ...Principal Edward Warren
      Jack Wallace   ...Mr. Sandborn
      Adam Hicks   ...Jason Zimmer
      Fran漀椀猀 Chau   ...Detective Johnny Chou
      拜利·切斯 Bailey Chase   ...Benny
      Kent Avenido   ...Mr. Avenido
      特拉维斯·斯楚特 Travis Schuldt   ...Ethan
      布莱恩·马奥尼 Brian Mahoney   ...Couper
      Raquel Gardner   ...Barbara
影片:

◎剧情简介
       影片报告一个名叫诺亚的帅气而有魅力的青年碰到一个刚仳离的高中教员克莱尔后,起头向她暗示友爱但被教员以为是调情。虽然诺亚大部分时候只是和教员的儿子进来玩,但克莱尔照旧没法禁止这个年轻人的吸引力,并在某天早晨决议勾引他。但是当她想竣事这段关系时,却发现诺亚是个暴力狂。
-------------------------

  1. Video
  2. ID                                       : 1
  3. Format                                   : AVC
  4. Format/Info                              : Advanced Video Codec
  5. Format profile                           : [email protected]
  6. Format settings, CABAC                   : Yes
  7. Format settings, ReFrames                : 4 frames
  8. Codec ID                                 : V_MPEG4/ISO/AVC
  9. Duration                                 : 1h 30mn
  10. Bit rate mode                            : Variable
  11. Maximum bit rate                         : 35.0 Mbps
  12. Width                                    : 1 920 pixels
  13. Height                                   : 1 080 pixels
  14. Display aspect ratio                     : 16:9
  15. Frame rate mode                          : Constant
  16. Frame rate                               : 23.976 fps
  17. Color space                              : YUV
  18. Chroma subsampling                       : 4:2:0
  19. Bit depth                                : 8 bits
  20. Scan type                                : Progressive
  21. Title                                    : The.Boy.Next.Door.2015.1080p.BluRay.REMUX.AVC.DTS-HD.MA.5.1-RARBG
  22. Language                                 : English
  23. Default                                  : No
  24. Forced                                   : No

  25. Audio #1
  26. ID                                       : 2
  27. Format                                   : DTS
  28. Format/Info                              : Digital Theater Systems
  29. Format profile                           : MA / Core
  30. Mode                                     : 16
  31. Format settings, Endianness              : Big
  32. Codec ID                                 : A_DTS
  33. Duration                                 : 1h 30mn
  34. Bit rate mode                            : Variable
  35. Bit rate                                 : Unknown / 1 509 Kbps
  36. Channel(s)                               : 6 channels
  37. Channel positions                        : Front: L C R, Side: L R, LFE
  38. Sampling rate                            : 48.0 KHz
  39. Bit depth                                : 24 bits
  40. Compression mode                         : Lossless / Lossy
  41. Title                                    : The.Boy.Next.Door.2015.1080p.BluRay.REMUX.AVC.DTS-HD.MA.5.1-RARBG
  42. Language                                 : English
  43. Default                                  : Yes
  44. Forced                                   : No

  45. Audio #2
  46. ID                                       : 3
  47. Format                                   : DTS
  48. Format/Info                              : Digital Theater Systems
  49. Mode                                     : 16
  50. Format settings, Endianness              : Big
  51. Codec ID                                 : A_DTS
  52. Duration                                 : 1h 30mn
  53. Bit rate mode                            : Constant
  54. Bit rate                                 : 1 509 Kbps
  55. Channel(s)                               : 6 channels
  56. Channel positions                        : Front: L C R, Side: L R, LFE
  57. Sampling rate                            : 48.0 KHz
  58. Bit depth                                : 24 bits
  59. Compression mode                         : Lossy
  60. Stream size                              : 979 MiB (4%)
  61. Title                                    : The.Boy.Next.Door.2015.1080p.BluRay.REMUX.AVC.DTS-HD.MA.5.1-RARBG
  62. Language                                 : English
  63. Default                                  : No
  64. Forced                                   : No

  65. Audio #3
  66. ID                                       : 4
  67. Format                                   : DTS
  68. Format/Info                              : Digital Theater Systems
  69. Mode                                     : 16
  70. Format settings, Endianness              : Big
  71. Codec ID                                 : A_DTS
  72. Duration                                 : 1h 30mn
  73. Bit rate mode                            : Constant
  74. Bit rate                                 : 768 Kbps
  75. Channel(s)                               : 6 channels
  76. Channel positions                        : Front: L C R, Side: L R, LFE
  77. Sampling rate                            : 48.0 KHz
  78. Bit depth                                : 24 bits
  79. Compression mode                         : Lossy
  80. Stream size                              : 498 MiB (2%)
  81. Title                                    : The.Boy.Next.Door.2015.1080p.BluRay.REMUX.AVC.DTS-HD.MA.5.1-RARBG
  82. Language                                 : Spanish
  83. Default                                  : No
  84. Forced                                   : No

  85. Audio #4
  86. ID                                       : 5
  87. Format                                   : DTS
  88. Format/Info                              : Digital Theater Systems
  89. Mode                                     : 16
  90. Format settings, Endianness              : Big
  91. Codec ID                                 : A_DTS
  92. Duration                                 : 1h 30mn
  93. Bit rate mode                            : Constant
  94. Bit rate                                 : 768 Kbps
  95. Channel(s)                               : 6 channels
  96. Channel positions                        : Front: L C R, Side: L R, LFE
  97. Sampling rate                            : 48.0 KHz
  98. Bit depth                                : 24 bits
  99. Compression mode                         : Lossy
  100. Stream size                              : 498 MiB (2%)
  101. Title                                    : The.Boy.Next.Door.2015.1080p.BluRay.REMUX.AVC.DTS-HD.MA.5.1-RARBG
  102. Language                                 : French
  103. Default                                  : No
  104. Forced                                   : No

  105. Audio #5
  106. ID                                       : 6
  107. Format                                   : AC-3
  108. Format/Info                              : Audio Coding 3
  109. Format profile                           : Dolby Digital
  110. Mode extension                           : CM (complete main)
  111. Format settings, Endianness              : Big
  112. Codec ID                                 : A_AC3
  113. Duration                                 : 1h 30mn
  114. Bit rate mode                            : Constant
  115. Bit rate                                 : 192 Kbps
  116. Channel(s)                               : 2 channels
  117. Channel positions                        : Front: L R
  118. Sampling rate                            : 48.0 KHz
  119. Bit depth                                : 16 bits
  120. Compression mode                         : Lossy
  121. Stream size                              : 125 MiB (0%)
  122. Title                                    : The.Boy.Next.Door.2015.1080p.BluRay.REMUX.AVC.DTS-HD.MA.5.1-RARBG
  123. Language                                 : English
  124. Default                                  : No
  125. Forced                                   : No

  126. Audio #6
  127. ID                                       : 7
  128. Format                                   : AC-3
  129. Format/Info                              : Audio Coding 3
  130. Format profile                           : Dolby Digital
  131. Mode extension                           : CM (complete main)
  132. Format settings, Endianness              : Big
  133. Codec ID                                 : A_AC3
  134. Duration                                 : 1h 30mn
  135. Bit rate mode                            : Constant
  136. Bit rate                                 : 192 Kbps
  137. Channel(s)                               : 2 channels
  138. Channel positions                        : Front: L R
  139. Sampling rate                            : 48.0 KHz
  140. Bit depth                                : 16 bits
  141. Compression mode                         : Lossy
  142. Stream size                              : 125 MiB (0%)
  143. Title                                    : The.Boy.Next.Door.2015.1080p.BluRay.REMUX.AVC.DTS-HD.MA.5.1-RARBG
  144. Language                                 : English
  145. Default                                  : No
  146. Forced                                   : No

  147. Text #1
  148. ID                                       : 8
  149. Format                                   : PGS
  150. Muxing mode                              : zlib
  151. Codec ID                                 : S_HDMV/PGS
  152. Codec ID/Info                            : The same subtitle format used on BDs/HD-DVDs
  153. Language                                 : English
  154. Default                                  : No
  155. Forced                                   : No

  156. Text #2
  157. ID                                       : 9
  158. Format                                   : PGS
  159. Muxing mode                              : zlib
  160. Codec ID                                 : S_HDMV/PGS
  161. Codec ID/Info                            : The same subtitle format used on BDs/HD-DVDs
  162. Language                                 : Spanish
  163. Default                                  : No
  164. Forced                                   : No

  165. Text #3
  166. ID                                       : 10
  167. Format                                   : PGS
  168. Muxing mode                              : zlib
  169. Codec ID                                 : S_HDMV/PGS
  170. Codec ID/Info                            : The same subtitle format used on BDs/HD-DVDs
  171. Language                                 : French
  172. Default                                  : No
  173. Forced                                   : No

  174. Text #4
  175. ID                                       : 11
  176. Format                                   : PGS
  177. Muxing mode                              : zlib
  178. Codec ID                                 : S_HDMV/PGS
  179. Codec ID/Info                            : The same subtitle format used on BDs/HD-DVDs
  180. Language                                 : Spanish
  181. Default                                  : No
  182. Forced                                   : No

  183. Text #5
  184. ID                                       : 12
  185. Format                                   : PGS
  186. Muxing mode                              : zlib
  187. Codec ID                                 : S_HDMV/PGS
  188. Codec ID/Info                            : The same subtitle format used on BDs/HD-DVDs
  189. Language                                 : French
  190. Default                                  : No
  191. Forced                                   : No

  192. Menu
  193. 00:00:00.000                             : en:Chapter 01
  194. 00:04:30.019                             : en:Chapter 02
  195. 00:10:39.930                             : en:Chapter 03
  196. 00:15:32.890                             : en:Chapter 04
  197. 00:20:31.021                             : en:Chapter 05
  198. 00:24:41.730                             : en:Chapter 06
  199. 00:26:53.570                             : en:Chapter 07
  200. 00:30:49.681                             : en:Chapter 08
  201. 00:35:51.440                             : en:Chapter 09
  202. 00:40:20.626                             : en:Chapter 10
  203. 00:45:47.369                             : en:Chapter 11
  204. 00:49:24.795                             : en:Chapter 12
  205. 00:53:28.955                             : en:Chapter 13
  206. 00:56:43.650                             : en:Chapter 14
  207. 01:00:45.850                             : en:Chapter 15
  208. 01:03:44.987                             : en:Chapter 16
  209. 01:09:31.041                             : en:Chapter 17
  210. 01:14:06.608                             : en:Chapter 18
  211. 01:19:50.952                             : en:Chapter 19
  212. 01:24:33.526                             : en:Chapter 20
复制代码

复制代码

-------------------------
◎出色剧照
102252uegqqj0m4se0sfh9.jpg
102254hz1bj7pc1m5zxjnc.jpg
102259ull4nzh6dzldrhri.jpg

-------------------------
[以上高清电影剧照来自互联网,不代表此片高清剧照]
慎重声明:本站供给的一切高清电影作品均是在网上汇集,任何触及贸易盈利目标均不得利用,否则发生的一切结果将由您自己承当!本站将差池本站的任何内容负任何法令义务!该下载内容仅做宽带测试利用,请鄙人载后24小时内删除。请采办正
版!
-------------------------
◎种子下载地址
字幕请自行修更称号。
旅客,假如您要检察本帖隐藏内容请答复
旅客,假如您要检察本帖隐藏内容请答复
回复

使用道具 举报

懒得打字嘛,点击右侧快捷回复 【右侧内容,后台自定义】
您需要登录后才可以回帖 登录 | 立即加入

本版积分规则

Archiver|小黑屋| 蓝光电影网 |网站地图

Copyright © 2021 Comsenz Inc. Powered by 蓝光电影网

蓝光电影网

本站内容由用户自主分享和转载自互联网,转载目的在于传递更多信息,并不代表本网赞同其观点和对其真实性负责。

如有侵权、违反国家法律政策行为,请联系我们,我们会第一时间及时清除和处理!

举报反馈邮箱:[email protected]

快速回复 返回顶部 返回列表