找回密码

蓝光电影网

查看: 6116|回复: 6

[2014][美国][动作][美国狙击手][REMUX][1080P-31G][MKV]TrueHD7.1

  [复制链接]
蓝光币
426
发表于 2015-9-12 22:14:57 | 显示全部楼层 |阅读模式



[行动][美国狙击手American.Sniper.2014.1080p.BluRay.REMUX.AVC.TrueHD.7.1.Atmos-RARBG][31G][MKV]TrueHD7.1
114708egjc7b2i88y8rlk4.jpg

◎影片根基信息
主演: 布莱德利·库珀 / 西耶娜·米勒 / 卢克·葛莱姆斯 / 凯尔·加尔纳 / 杰克·麦克道曼 / 更多...
范例: 行动 / 列传 / 战争
制片国家/地域: 美国
说话: 英语 / 阿拉伯语
巨细: 8.75G
清楚度: 1080P
视频: MKV
豆瓣评分: 7.2
导演: 克林特·伊斯特伍德
编剧: 杰森·迪恩·霍尔
上映日期: 2014-11-11(AFI影展) / 2015-01-16(美国)
片长: 132分钟
影片: American.Sniper.2014.1080p.BluRay.REMUX.AVC.TrueHD.7.1.Atmos-RARBG

◎剧情简介
       克里斯·凯尔(布莱德利·库珀 Bradley Cooper 饰)原本是一位普通美国牛仔,“911”事务今后他以30岁的高龄加入了海豹突击队,并成为了伊拉克疆场上的一位优异狙击手。从军以后克里斯熟悉了塔雅(西耶娜·米勒 Sienna Miller 饰),两人很快成婚生子,可是随着克里斯的屡次出征伊拉克,两人的家庭发生了很多题目。疆场上的克里斯非常优异,被队友称号为“传奇”,可骇份子以高额奖金请职业狙击手猎杀他,但屡次都未得手,可是身旁的队友却一个个遭受意外,虽然妻子接二连三哀告他退伍,可是他抱着为队友复仇的信心最初一次出征……
-------------------------

  1. Video
  2. ID                                       : 1
  3. Format                                   : AVC
  4. Format/Info                              : Advanced Video Codec
  5. Format profile                           : [email protected]
  6. Format settings, CABAC                   : Yes
  7. Format settings, ReFrames                : 2 frames
  8. Format settings, GOP                     : M=1, N=10
  9. Codec ID                                 : V_MPEG4/ISO/AVC
  10. Duration                                 : 2h 12mn
  11. Bit rate mode                            : Variable
  12. Width                                    : 1 920 pixels
  13. Height                                   : 1 080 pixels
  14. Display aspect ratio                     : 16:9
  15. Frame rate mode                          : Constant
  16. Frame rate                               : 23.976 fps
  17. Color space                              : YUV
  18. Chroma subsampling                       : 4:2:0
  19. Bit depth                                : 8 bits
  20. Scan type                                : Progressive
  21. Title                                    : American.Sniper.2014.1080p.BluRay.REMUX.AVC.TrueHD.7.1.Atmos-RARBG
  22. Language                                 : English
  23. Default                                  : No
  24. Forced                                   : No

  25. Audio #1
  26. ID                                       : 2
  27. Format                                   : TrueHD
  28. Codec ID                                 : A_TRUEHD
  29. Duration                                 : 2h 12mn
  30. Bit rate mode                            : Variable
  31. Maximum bit rate                         : 7 407 Kbps
  32. Channel(s)                               : 8 channels
  33. Channel positions                        : Front: L C R, Side: L R, Back: L R, LFE
  34. Sampling rate                            : 48.0 KHz
  35. Bit depth                                : 24 bits
  36. Compression mode                         : Lossless
  37. Title                                    : American.Sniper.2014.1080p.BluRay.REMUX.AVC.TrueHD.7.1.Atmos-RARBG
  38. Language                                 : English
  39. Default                                  : Yes
  40. Forced                                   : No

  41. Audio #2
  42. ID                                       : 3
  43. Format                                   : AC-3
  44. Format/Info                              : Audio Coding 3
  45. Mode extension                           : CM (complete main)
  46. Format settings, Endianness              : Big
  47. Codec ID                                 : A_AC3
  48. Duration                                 : 2h 12mn
  49. Bit rate mode                            : Constant
  50. Bit rate                                 : 640 Kbps
  51. Channel(s)                               : 6 channels
  52. Channel positions                        : Front: L C R, Side: L R, LFE
  53. Sampling rate                            : 48.0 KHz
  54. Bit depth                                : 16 bits
  55. Compression mode                         : Lossy
  56. Stream size                              : 607 MiB (2%)
  57. Title                                    : American.Sniper.2014.1080p.BluRay.REMUX.AVC.TrueHD.7.1.Atmos-RARBG
  58. Language                                 : English
  59. Default                                  : No
  60. Forced                                   : No

  61. Audio #3
  62. ID                                       : 4
  63. Format                                   : AC-3
  64. Format/Info                              : Audio Coding 3
  65. Mode extension                           : CM (complete main)
  66. Format settings, Endianness              : Big
  67. Codec ID                                 : A_AC3
  68. Duration                                 : 2h 12mn
  69. Bit rate mode                            : Constant
  70. Bit rate                                 : 448 Kbps
  71. Channel(s)                               : 6 channels
  72. Channel positions                        : Front: L C R, Side: L R, LFE
  73. Sampling rate                            : 48.0 KHz
  74. Bit depth                                : 16 bits
  75. Compression mode                         : Lossy
  76. Stream size                              : 425 MiB (1%)
  77. Title                                    : American.Sniper.2014.1080p.BluRay.REMUX.AVC.TrueHD.7.1.Atmos-RARBG
  78. Language                                 : English
  79. Default                                  : No
  80. Forced                                   : No

  81. Audio #4
  82. ID                                       : 5
  83. Format                                   : E-AC-3
  84. Format/Info                              : Audio Coding 3
  85. Codec ID                                 : A_EAC3
  86. Duration                                 : 2h 12mn
  87. Channel(s)                               : 4 channels
  88. Sampling rate                            : 48.0 KHz
  89. Compression mode                         : Lossy
  90. Title                                    : American.Sniper.2014.1080p.BluRay.REMUX.AVC.TrueHD.7.1.Atmos-RARBG
  91. Language                                 : French
  92. Default                                  : No
  93. Forced                                   : No

  94. Audio #5
  95. ID                                       : 6
  96. Format                                   : AC-3
  97. Format/Info                              : Audio Coding 3
  98. Mode extension                           : CM (complete main)
  99. Format settings, Endianness              : Big
  100. Codec ID                                 : A_AC3
  101. Duration                                 : 2h 12mn
  102. Bit rate mode                            : Constant
  103. Bit rate                                 : 640 Kbps
  104. Channel(s)                               : 6 channels
  105. Channel positions                        : Front: L C R, Side: L R, LFE
  106. Sampling rate                            : 48.0 KHz
  107. Bit depth                                : 16 bits
  108. Compression mode                         : Lossy
  109. Stream size                              : 607 MiB (2%)
  110. Title                                    : American.Sniper.2014.1080p.BluRay.REMUX.AVC.TrueHD.7.1.Atmos-RARBG
  111. Language                                 : French
  112. Default                                  : No
  113. Forced                                   : No

  114. Audio #6
  115. ID                                       : 7
  116. Format                                   : E-AC-3
  117. Format/Info                              : Audio Coding 3
  118. Codec ID                                 : A_EAC3
  119. Duration                                 : 2h 12mn
  120. Channel(s)                               : 4 channels
  121. Sampling rate                            : 48.0 KHz
  122. Compression mode                         : Lossy
  123. Title                                    : American.Sniper.2014.1080p.BluRay.REMUX.AVC.TrueHD.7.1.Atmos-RARBG
  124. Language                                 : German
  125. Default                                  : No
  126. Forced                                   : No

  127. Audio #7
  128. ID                                       : 8
  129. Format                                   : AC-3
  130. Format/Info                              : Audio Coding 3
  131. Mode extension                           : CM (complete main)
  132. Format settings, Endianness              : Big
  133. Codec ID                                 : A_AC3
  134. Duration                                 : 2h 12mn
  135. Bit rate mode                            : Constant
  136. Bit rate                                 : 640 Kbps
  137. Channel(s)                               : 6 channels
  138. Channel positions                        : Front: L C R, Side: L R, LFE
  139. Sampling rate                            : 48.0 KHz
  140. Bit depth                                : 16 bits
  141. Compression mode                         : Lossy
  142. Stream size                              : 607 MiB (2%)
  143. Title                                    : American.Sniper.2014.1080p.BluRay.REMUX.AVC.TrueHD.7.1.Atmos-RARBG
  144. Language                                 : German
  145. Default                                  : No
  146. Forced                                   : No

  147. Audio #8
  148. ID                                       : 9
  149. Format                                   : AC-3
  150. Format/Info                              : Audio Coding 3
  151. Mode extension                           : CM (complete main)
  152. Format settings, Endianness              : Big
  153. Codec ID                                 : A_AC3
  154. Duration                                 : 2h 12mn
  155. Bit rate mode                            : Constant
  156. Bit rate                                 : 448 Kbps
  157. Channel(s)                               : 6 channels
  158. Channel positions                        : Front: L C R, Side: L R, LFE
  159. Sampling rate                            : 48.0 KHz
  160. Bit depth                                : 16 bits
  161. Compression mode                         : Lossy
  162. Stream size                              : 425 MiB (1%)
  163. Title                                    : American.Sniper.2014.1080p.BluRay.REMUX.AVC.TrueHD.7.1.Atmos-RARBG
  164. Language                                 : Italian
  165. Default                                  : No
  166. Forced                                   : No

  167. Audio #9
  168. ID                                       : 10
  169. Format                                   : AC-3
  170. Format/Info                              : Audio Coding 3
  171. Mode extension                           : CM (complete main)
  172. Format settings, Endianness              : Big
  173. Codec ID                                 : A_AC3
  174. Duration                                 : 2h 12mn
  175. Bit rate mode                            : Constant
  176. Bit rate                                 : 448 Kbps
  177. Channel(s)                               : 6 channels
  178. Channel positions                        : Front: L C R, Side: L R, LFE
  179. Sampling rate                            : 48.0 KHz
  180. Bit depth                                : 16 bits
  181. Compression mode                         : Lossy
  182. Stream size                              : 425 MiB (1%)
  183. Title                                    : American.Sniper.2014.1080p.BluRay.REMUX.AVC.TrueHD.7.1.Atmos-RARBG
  184. Language                                 : Spanish
  185. Default                                  : No
  186. Forced                                   : No
复制代码

复制代码

-------------------------
◎出色剧照
114705qv6t0h0xddzi0z2e.jpg
114706ivmwkvm1e9e8jc1e.jpg
114706tjj3ujpw9xxzz5sj.jpg
114707noum4eo4m6to9evm.jpg

-------------------------
[以上高清电影剧照来自互联网,不代表此片高清剧照]
慎重声明:本站供给的一切高清电影作品均是在网上汇集,任何触及贸易盈利目标均不得利用,否则发生的一切结果将由您自己承当!本站将差池本站的任何内容负任何法令义务!该下载内容仅做宽带测试利用,请鄙人载后24小时内删除。请采办正
版!
-------------------------
◎种子下载地址
旅客,假如您要检察本帖隐藏内容请答复
回复

使用道具 举报

蓝光币
1
发表于 2019-1-11 11:48:13 | 显示全部楼层
我想看看谢谢楼主
回复 支持 反对

使用道具 举报

蓝光币
31
发表于 2019-6-23 09:25:11 | 显示全部楼层
感谢楼主分享
回复 支持 反对

使用道具 举报

蓝光币
0
发表于 2020-4-24 14:09:47 | 显示全部楼层
谢谢楼主
回复

使用道具 举报

蓝光币
7
发表于 2020-6-16 19:25:26 | 显示全部楼层
感谢分享,就等这部电影了
回复 支持 反对

使用道具 举报

蓝光币
13
发表于 2021-2-24 12:33:15 | 显示全部楼层
辛苦了。谢谢分享!
回复 支持 反对

使用道具 举报

蓝光币
91
发表于 2021-5-2 23:08:03 | 显示全部楼层
1080就可以了
回复 支持 反对

使用道具 举报

懒得打字嘛,点击右侧快捷回复 【右侧内容,后台自定义】
您需要登录后才可以回帖 登录 | 立即加入

本版积分规则

Archiver|小黑屋| 蓝光电影网 |网站地图

Copyright © 2021 Comsenz Inc. Powered by 蓝光电影网

蓝光电影网

本站内容由用户自主分享和转载自互联网,转载目的在于传递更多信息,并不代表本网赞同其观点和对其真实性负责。

如有侵权、违反国家法律政策行为,请联系我们,我们会第一时间及时清除和处理!

举报反馈邮箱:[email protected]

快速回复 返回顶部 返回列表