找回密码

蓝光电影网

查看: 670|回复: 0

[2015][美国][喜剧][热浴盆时光机2][未分级版REMUX][1080P-26.47G][MKV]DTS

[复制链接]
蓝光币
382
发表于 2015-9-12 22:51:35 | 显示全部楼层 |阅读模式

[2015][美国][笑剧][热浴盆时光机2][未分级版REMUX][1080P-26.47G][MKV]DTS
101025azju8do31u2du11u.jpg

◎影片根基信息
巨细: 26.47G
清楚度: 1080P
视频: MKV
豆瓣评分: 4.4
导演: 斯蒂夫·平克
编剧: 乔什·贺德
主演: 亚当·斯科特 / 吉莉安·雅各布斯 / 切维·切斯 / 科莱特·沃夫 / 托马斯·列农 / 更多...
范例: 笑剧
制片国家/地域: 美国
说话: 英语
上映日期: 2015-02-20(美国)
片长: 93分钟 / 99分钟(未分级版)
影片: Hot.Tub.Time.Machine.2.2015.UNRATED.1080p.BluRay.REMUX.AVC.DTS-HD.MA.5.1-RARBG

◎剧情简介
       电影Hot Tub Time Machine 2《热浴盆时光机2》剧情承接上作,当卢正沉醉于成为“互联网之父”时,却不幸遭到一位不明身份的攻击者**击,人命危在旦夕,为了再次拯救他们的朋友,雅各布和尼克火再次启动了时候机械——热浴盆时光机。
-------------------------

  1. Video
  2. ID                                       : 1
  3. Format                                   : AVC
  4. Format/Info                              : Advanced Video Codec
  5. Format profile                           : [email protected]
  6. Format settings, CABAC                   : Yes
  7. Format settings, ReFrames                : 4 frames
  8. Codec ID                                 : V_MPEG4/ISO/AVC
  9. Duration                                 : 1h 39mn
  10. Bit rate mode                            : Variable
  11. Maximum bit rate                         : 33.8 Mbps
  12. Width                                    : 1 920 pixels
  13. Height                                   : 1 080 pixels
  14. Display aspect ratio                     : 16:9
  15. Frame rate mode                          : Constant
  16. Frame rate                               : 23.976 fps
  17. Color space                              : YUV
  18. Chroma subsampling                       : 4:2:0
  19. Bit depth                                : 8 bits
  20. Scan type                                : Progressive
  21. Title                                    : Hot.Tub.Time.Machine.2.2015.UNRATED.1080p.BluRay.REMUX.AVC.DTS-HD.MA.5.1-RARBG
  22. Language                                 : English
  23. Default                                  : No
  24. Forced                                   : No

  25. Audio #1
  26. ID                                       : 2
  27. Format                                   : DTS
  28. Format/Info                              : Digital Theater Systems
  29. Format profile                           : MA / Core
  30. Mode                                     : 16
  31. Format settings, Endianness              : Big
  32. Codec ID                                 : A_DTS
  33. Duration                                 : 1h 39mn
  34. Bit rate mode                            : Variable
  35. Bit rate                                 : Unknown / 1 509 Kbps
  36. Channel(s)                               : 6 channels
  37. Channel positions                        : Front: L C R, Side: L R, LFE
  38. Sampling rate                            : 48.0 KHz
  39. Bit depth                                : 24 bits
  40. Compression mode                         : Lossless / Lossy
  41. Title                                    : Hot.Tub.Time.Machine.2.2015.UNRATED.1080p.BluRay.REMUX.AVC.DTS-HD.MA.5.1-RARBG
  42. Language                                 : English
  43. Default                                  : Yes
  44. Forced                                   : No

  45. Audio #2
  46. ID                                       : 3
  47. Format                                   : DTS
  48. Format/Info                              : Digital Theater Systems
  49. Mode                                     : 16
  50. Format settings, Endianness              : Big
  51. Codec ID                                 : A_DTS
  52. Duration                                 : 1h 39mn
  53. Bit rate mode                            : Constant
  54. Bit rate                                 : 1 509 Kbps
  55. Channel(s)                               : 6 channels
  56. Channel positions                        : Front: L C R, Side: L R, LFE
  57. Sampling rate                            : 48.0 KHz
  58. Bit depth                                : 24 bits
  59. Compression mode                         : Lossy
  60. Stream size                              : 1.05 GiB (4%)
  61. Title                                    : Hot.Tub.Time.Machine.2.2015.UNRATED.1080p.BluRay.REMUX.AVC.DTS-HD.MA.5.1-RARBG
  62. Language                                 : English
  63. Default                                  : No
  64. Forced                                   : No

  65. Audio #3
  66. ID                                       : 4
  67. Format                                   : AC-3
  68. Format/Info                              : Audio Coding 3
  69. Mode extension                           : CM (complete main)
  70. Format settings, Endianness              : Big
  71. Codec ID                                 : A_AC3
  72. Duration                                 : 1h 39mn
  73. Bit rate mode                            : Constant
  74. Bit rate                                 : 640 Kbps
  75. Channel(s)                               : 6 channels
  76. Channel positions                        : Front: L C R, Side: L R, LFE
  77. Sampling rate                            : 48.0 KHz
  78. Bit depth                                : 16 bits
  79. Compression mode                         : Lossy
  80. Stream size                              : 454 MiB (2%)
  81. Title                                    : Hot.Tub.Time.Machine.2.2015.UNRATED.1080p.BluRay.REMUX.AVC.DTS-HD.MA.5.1-RARBG
  82. Language                                 : French
  83. Default                                  : No
  84. Forced                                   : No

  85. Audio #4
  86. ID                                       : 5
  87. Format                                   : AC-3
  88. Format/Info                              : Audio Coding 3
  89. Mode extension                           : CM (complete main)
  90. Format settings, Endianness              : Big
  91. Codec ID                                 : A_AC3
  92. Duration                                 : 1h 39mn
  93. Bit rate mode                            : Constant
  94. Bit rate                                 : 640 Kbps
  95. Channel(s)                               : 6 channels
  96. Channel positions                        : Front: L C R, Side: L R, LFE
  97. Sampling rate                            : 48.0 KHz
  98. Bit depth                                : 16 bits
  99. Compression mode                         : Lossy
  100. Stream size                              : 454 MiB (2%)
  101. Title                                    : Hot.Tub.Time.Machine.2.2015.UNRATED.1080p.BluRay.REMUX.AVC.DTS-HD.MA.5.1-RARBG
  102. Language                                 : Spanish
  103. Default                                  : No
  104. Forced                                   : No

  105. Audio #5
  106. ID                                       : 6
  107. Format                                   : AC-3
  108. Format/Info                              : Audio Coding 3
  109. Mode extension                           : CM (complete main)
  110. Format settings, Endianness              : Big
  111. Codec ID                                 : A_AC3
  112. Duration                                 : 1h 39mn
  113. Bit rate mode                            : Constant
  114. Bit rate                                 : 640 Kbps
  115. Channel(s)                               : 6 channels
  116. Channel positions                        : Front: L C R, Side: L R, LFE
  117. Sampling rate                            : 48.0 KHz
  118. Bit depth                                : 16 bits
  119. Compression mode                         : Lossy
  120. Stream size                              : 454 MiB (2%)
  121. Title                                    : Hot.Tub.Time.Machine.2.2015.UNRATED.1080p.BluRay.REMUX.AVC.DTS-HD.MA.5.1-RARBG
  122. Language                                 : Portuguese
  123. Default                                  : No
  124. Forced                                   : No

  125. Audio #6
  126. ID                                       : 7
  127. Format                                   : AC-3
  128. Format/Info                              : Audio Coding 3
  129. Mode extension                           : CM (complete main)
  130. Format settings, Endianness              : Big
  131. Codec ID                                 : A_AC3
  132. Duration                                 : 1h 39mn
  133. Bit rate mode                            : Constant
  134. Bit rate                                 : 640 Kbps
  135. Channel(s)                               : 6 channels
  136. Channel positions                        : Front: L C R, Side: L R, LFE
  137. Sampling rate                            : 48.0 KHz
  138. Bit depth                                : 16 bits
  139. Compression mode                         : Lossy
  140. Stream size                              : 454 MiB (2%)
  141. Title                                    : Hot.Tub.Time.Machine.2.2015.UNRATED.1080p.BluRay.REMUX.AVC.DTS-HD.MA.5.1-RARBG
  142. Language                                 : English
  143. Default                                  : No
  144. Forced                                   : No

  145. Audio #7
  146. ID                                       : 8
  147. Format                                   : AC-3
  148. Format/Info                              : Audio Coding 3
  149. Format profile                           : Dolby Digital
  150. Mode extension                           : CM (complete main)
  151. Format settings, Endianness              : Big
  152. Codec ID                                 : A_AC3
  153. Duration                                 : 1h 39mn
  154. Bit rate mode                            : Constant
  155. Bit rate                                 : 224 Kbps
  156. Channel(s)                               : 2 channels
  157. Channel positions                        : Front: L R
  158. Sampling rate                            : 48.0 KHz
  159. Bit depth                                : 16 bits
  160. Compression mode                         : Lossy
  161. Stream size                              : 159 MiB (1%)
  162. Title                                    : Hot.Tub.Time.Machine.2.2015.UNRATED.1080p.BluRay.REMUX.AVC.DTS-HD.MA.5.1-RARBG
  163. Language                                 : English
  164. Default                                  : No
  165. Forced                                   : No

  166. Text #1
  167. ID                                       : 9
  168. Format                                   : PGS
  169. Muxing mode                              : zlib
  170. Codec ID                                 : S_HDMV/PGS
  171. Codec ID/Info                            : The same subtitle format used on BDs/HD-DVDs
  172. Language                                 : English
  173. Default                                  : No
  174. Forced                                   : No

  175. Text #2
  176. ID                                       : 10
  177. Format                                   : PGS
  178. Muxing mode                              : zlib
  179. Codec ID                                 : S_HDMV/PGS
  180. Codec ID/Info                            : The same subtitle format used on BDs/HD-DVDs
  181. Language                                 : English
  182. Default                                  : No
  183. Forced                                   : No

  184. Text #3
  185. ID                                       : 11
  186. Format                                   : PGS
  187. Muxing mode                              : zlib
  188. Codec ID                                 : S_HDMV/PGS
  189. Codec ID/Info                            : The same subtitle format used on BDs/HD-DVDs
  190. Language                                 : French
  191. Default                                  : No
  192. Forced                                   : No

  193. Text #4
  194. ID                                       : 12
  195. Format                                   : PGS
  196. Muxing mode                              : zlib
  197. Codec ID                                 : S_HDMV/PGS
  198. Codec ID/Info                            : The same subtitle format used on BDs/HD-DVDs
  199. Language                                 : French
  200. Default                                  : No
  201. Forced                                   : No

  202. Text #5
  203. ID                                       : 13
  204. Format                                   : PGS
  205. Muxing mode                              : zlib
  206. Codec ID                                 : S_HDMV/PGS
  207. Codec ID/Info                            : The same subtitle format used on BDs/HD-DVDs
  208. Language                                 : Spanish
  209. Default                                  : No
  210. Forced                                   : No

  211. Text #6
  212. ID                                       : 14
  213. Format                                   : PGS
  214. Muxing mode                              : zlib
  215. Codec ID                                 : S_HDMV/PGS
  216. Codec ID/Info                            : The same subtitle format used on BDs/HD-DVDs
  217. Language                                 : Spanish
  218. Default                                  : No
  219. Forced                                   : No

  220. Text #7
  221. ID                                       : 15
  222. Format                                   : PGS
  223. Muxing mode                              : zlib
  224. Codec ID                                 : S_HDMV/PGS
  225. Codec ID/Info                            : The same subtitle format used on BDs/HD-DVDs
  226. Language                                 : Portuguese
  227. Default                                  : No
  228. Forced                                   : No

  229. Text #8
  230. ID                                       : 16
  231. Format                                   : PGS
  232. Muxing mode                              : zlib
  233. Codec ID                                 : S_HDMV/PGS
  234. Codec ID/Info                            : The same subtitle format used on BDs/HD-DVDs
  235. Language                                 : Portuguese
  236. Default                                  : No
  237. Forced                                   : No

  238. Menu
  239. 00:00:00.000                             : en:Chapter 01
  240. 00:09:30.319                             : en:Chapter 02
  241. 00:18:56.718                             : en:Chapter 03
  242. 00:25:09.466                             : en:Chapter 04
  243. 00:31:03.987                             : en:Chapter 05
  244. 00:38:00.403                             : en:Chapter 06
  245. 00:42:12.279                             : en:Chapter 07
  246. 00:50:14.011                             : en:Chapter 08
  247. 01:00:13.526                             : en:Chapter 09
  248. 01:06:19.517                             : en:Chapter 10
  249. 01:11:51.307                             : en:Chapter 11
  250. 01:18:35.836                             : en:Chapter 12
  251. 01:25:53.481                             : en:Chapter 13
  252. 01:34:45.554                             : en:Chapter 14
复制代码

复制代码

-------------------------
◎出色剧照
101021nf7z5g7ra55fr468.jpg
101022m52tacha2san2b5w.jpg
101022ctprfo400eot9wtt.jpg

-------------------------
[以上高清电影剧照来自互联网,不代表此片高清剧照]
慎重声明:本站供给的一切高清电影作品均是在网上汇集,任何触及贸易盈利目标均不得利用,否则发生的一切结果将由您自己承当!本站将差池本站的任何内容负任何法令义务!该下载内容仅做宽带测试利用,请鄙人载后24小时内删除。请采办正
版!
-------------------------
◎种子下载地址
旅客,假如您要检察本帖隐藏内容请答复
回复

使用道具 举报

懒得打字嘛,点击右侧快捷回复 【右侧内容,后台自定义】
您需要登录后才可以回帖 登录 | 立即加入

本版积分规则

Archiver|小黑屋| 蓝光电影网 |网站地图

Copyright © 2021 Comsenz Inc. Powered by 蓝光电影网

蓝光电影网

本站内容由用户自主分享和转载自互联网,转载目的在于传递更多信息,并不代表本网赞同其观点和对其真实性负责。

如有侵权、违反国家法律政策行为,请联系我们,我们会第一时间及时清除和处理!

举报反馈邮箱:[email protected]

快速回复 返回顶部 返回列表