找回密码

蓝光电影网

查看: 693|回复: 1

[2015][美国][科幻][跨界失控/年鉴计划/改写人生][REMUX][1080P-30.51G][MKV]DTS

[复制链接]
蓝光币
426
发表于 2015-9-12 23:05:47 | 显示全部楼层 |阅读模式



[2015][美国][科幻][跨界失控/年鉴计划/改写人生][REMUX][1080P-30.51G][MKV]DTS
155926qjhjx7j2f2mt5ls5.jpg

◎影片根基信息
巨细: 30.51G
清楚度: 1080P
视频: MKV
豆瓣评分: 6.0
导演: Dean Israelite
编剧: Andrew Deutschman
主演: 约翰尼·韦斯顿 / 索菲亚·布莱克-德埃利亚 / 山姆·勒纳 / Allen Evangelista / 金妮·加德纳 / 更多...
范例: 科幻 / 惊悚
制片国家/地域: 美国
说话: 英语
上映日期: 2015-01-30(美国)
片长: 106分钟
别名: 跨界失控(台) / 改写人生 / 昨日行者 / 接待来到昨天 / 年历 / Welcome to Yesterday / Cinema One / Almanac
影片: Project.Almanac.2014.1080p.BluRay.REMUX.AVC.DTS-HD.MA.5.1-RARBG

◎剧情简介
       由《变形金刚》系列导演迈克尔·贝监制的科幻新片《年鉴计划》(Project Almanac) 本日公布美国版海报。影片报告五位美国青少年无意间发现了一台时光机,开启了一段史无前例的时空观光。他们在观光中肆意改变着自己的曩昔,不意以后这一切激发了疯狂的连锁反应……
-------------------------

  1. Video
  2. ID                                       : 1
  3. Format                                   : AVC
  4. Format/Info                              : Advanced Video Codec
  5. Format profile                           : [email protected]
  6. Format settings, CABAC                   : Yes
  7. Format settings, ReFrames                : 4 frames
  8. Codec ID                                 : V_MPEG4/ISO/AVC
  9. Duration                                 : 1h 46mn
  10. Bit rate mode                            : Variable
  11. Maximum bit rate                         : 36.0 Mbps
  12. Width                                    : 1 920 pixels
  13. Height                                   : 1 080 pixels
  14. Display aspect ratio                     : 16:9
  15. Frame rate mode                          : Constant
  16. Frame rate                               : 23.976 fps
  17. Color space                              : YUV
  18. Chroma subsampling                       : 4:2:0
  19. Bit depth                                : 8 bits
  20. Scan type                                : Progressive
  21. Title                                    : Project.Almanac.2014.1080p.BluRay.REMUX.AVC.DTS-HD.MA.5.1-RARBG
  22. Language                                 : English
  23. Default                                  : No
  24. Forced                                   : No

  25. Audio #1
  26. ID                                       : 2
  27. Format                                   : DTS
  28. Format/Info                              : Digital Theater Systems
  29. Format profile                           : MA / Core
  30. Mode                                     : 16
  31. Format settings, Endianness              : Big
  32. Codec ID                                 : A_DTS
  33. Duration                                 : 1h 46mn
  34. Bit rate mode                            : Variable
  35. Bit rate                                 : Unknown / 1 509 Kbps
  36. Channel(s)                               : 6 channels
  37. Channel positions                        : Front: L C R, Side: L R, LFE
  38. Sampling rate                            : 48.0 KHz
  39. Bit depth                                : 24 bits
  40. Compression mode                         : Lossless / Lossy
  41. Title                                    : Project.Almanac.2014.1080p.BluRay.REMUX.AVC.DTS-HD.MA.5.1-RARBG
  42. Language                                 : English
  43. Default                                  : Yes
  44. Forced                                   : No

  45. Audio #2
  46. ID                                       : 3
  47. Format                                   : DTS
  48. Format/Info                              : Digital Theater Systems
  49. Mode                                     : 16
  50. Format settings, Endianness              : Big
  51. Codec ID                                 : A_DTS
  52. Duration                                 : 1h 46mn
  53. Bit rate mode                            : Constant
  54. Bit rate                                 : 1 509 Kbps
  55. Channel(s)                               : 6 channels
  56. Channel positions                        : Front: L C R, Side: L R, LFE
  57. Sampling rate                            : 48.0 KHz
  58. Bit depth                                : 24 bits
  59. Compression mode                         : Lossy
  60. Stream size                              : 1.12 GiB (4%)
  61. Title                                    : Project.Almanac.2014.1080p.BluRay.REMUX.AVC.DTS-HD.MA.5.1-RARBG
  62. Language                                 : English
  63. Default                                  : No
  64. Forced                                   : No

  65. Audio #3
  66. ID                                       : 4
  67. Format                                   : AC-3
  68. Format/Info                              : Audio Coding 3
  69. Mode extension                           : CM (complete main)
  70. Format settings, Endianness              : Big
  71. Codec ID                                 : A_AC3
  72. Duration                                 : 1h 46mn
  73. Bit rate mode                            : Constant
  74. Bit rate                                 : 640 Kbps
  75. Channel(s)                               : 6 channels
  76. Channel positions                        : Front: L C R, Side: L R, LFE
  77. Sampling rate                            : 48.0 KHz
  78. Bit depth                                : 16 bits
  79. Compression mode                         : Lossy
  80. Stream size                              : 486 MiB (2%)
  81. Title                                    : Project.Almanac.2014.1080p.BluRay.REMUX.AVC.DTS-HD.MA.5.1-RARBG
  82. Language                                 : French
  83. Default                                  : No
  84. Forced                                   : No

  85. Audio #4
  86. ID                                       : 5
  87. Format                                   : AC-3
  88. Format/Info                              : Audio Coding 3
  89. Mode extension                           : CM (complete main)
  90. Format settings, Endianness              : Big
  91. Codec ID                                 : A_AC3
  92. Duration                                 : 1h 46mn
  93. Bit rate mode                            : Constant
  94. Bit rate                                 : 640 Kbps
  95. Channel(s)                               : 6 channels
  96. Channel positions                        : Front: L C R, Side: L R, LFE
  97. Sampling rate                            : 48.0 KHz
  98. Bit depth                                : 16 bits
  99. Compression mode                         : Lossy
  100. Stream size                              : 486 MiB (2%)
  101. Title                                    : Project.Almanac.2014.1080p.BluRay.REMUX.AVC.DTS-HD.MA.5.1-RARBG
  102. Language                                 : Spanish
  103. Default                                  : No
  104. Forced                                   : No

  105. Audio #5
  106. ID                                       : 6
  107. Format                                   : AC-3
  108. Format/Info                              : Audio Coding 3
  109. Mode extension                           : CM (complete main)
  110. Format settings, Endianness              : Big
  111. Codec ID                                 : A_AC3
  112. Duration                                 : 1h 46mn
  113. Bit rate mode                            : Constant
  114. Bit rate                                 : 640 Kbps
  115. Channel(s)                               : 6 channels
  116. Channel positions                        : Front: L C R, Side: L R, LFE
  117. Sampling rate                            : 48.0 KHz
  118. Bit depth                                : 16 bits
  119. Compression mode                         : Lossy
  120. Stream size                              : 486 MiB (2%)
  121. Title                                    : Project.Almanac.2014.1080p.BluRay.REMUX.AVC.DTS-HD.MA.5.1-RARBG
  122. Language                                 : Portuguese
  123. Default                                  : No
  124. Forced                                   : No

  125. Audio #6
  126. ID                                       : 7
  127. Format                                   : AC-3
  128. Format/Info                              : Audio Coding 3
  129. Mode extension                           : CM (complete main)
  130. Format settings, Endianness              : Big
  131. Codec ID                                 : A_AC3
  132. Duration                                 : 1h 46mn
  133. Bit rate mode                            : Constant
  134. Bit rate                                 : 640 Kbps
  135. Channel(s)                               : 6 channels
  136. Channel positions                        : Front: L C R, Side: L R, LFE
  137. Sampling rate                            : 48.0 KHz
  138. Bit depth                                : 16 bits
  139. Compression mode                         : Lossy
  140. Stream size                              : 486 MiB (2%)
  141. Title                                    : Project.Almanac.2014.1080p.BluRay.REMUX.AVC.DTS-HD.MA.5.1-RARBG
  142. Language                                 : English
  143. Default                                  : No
  144. Forced                                   : No

  145. Text #1
  146. ID                                       : 8
  147. Format                                   : PGS
  148. Muxing mode                              : zlib
  149. Codec ID                                 : S_HDMV/PGS
  150. Codec ID/Info                            : The same subtitle format used on BDs/HD-DVDs
  151. Language                                 : English
  152. Default                                  : No
  153. Forced                                   : No

  154. Text #2
  155. ID                                       : 9
  156. Format                                   : PGS
  157. Muxing mode                              : zlib
  158. Codec ID                                 : S_HDMV/PGS
  159. Codec ID/Info                            : The same subtitle format used on BDs/HD-DVDs
  160. Language                                 : English
  161. Default                                  : No
  162. Forced                                   : No

  163. Text #3
  164. ID                                       : 10
  165. Format                                   : PGS
  166. Muxing mode                              : zlib
  167. Codec ID                                 : S_HDMV/PGS
  168. Codec ID/Info                            : The same subtitle format used on BDs/HD-DVDs
  169. Language                                 : French
  170. Default                                  : No
  171. Forced                                   : No

  172. Text #4
  173. ID                                       : 11
  174. Format                                   : PGS
  175. Muxing mode                              : zlib
  176. Codec ID                                 : S_HDMV/PGS
  177. Codec ID/Info                            : The same subtitle format used on BDs/HD-DVDs
  178. Language                                 : French
  179. Default                                  : No
  180. Forced                                   : No

  181. Text #5
  182. ID                                       : 12
  183. Format                                   : PGS
  184. Muxing mode                              : zlib
  185. Codec ID                                 : S_HDMV/PGS
  186. Codec ID/Info                            : The same subtitle format used on BDs/HD-DVDs
  187. Language                                 : Spanish
  188. Default                                  : No
  189. Forced                                   : No

  190. Text #6
  191. ID                                       : 13
  192. Format                                   : PGS
  193. Muxing mode                              : zlib
  194. Codec ID                                 : S_HDMV/PGS
  195. Codec ID/Info                            : The same subtitle format used on BDs/HD-DVDs
  196. Language                                 : Spanish
  197. Default                                  : No
  198. Forced                                   : No

  199. Text #7
  200. ID                                       : 14
  201. Format                                   : PGS
  202. Muxing mode                              : zlib
  203. Codec ID                                 : S_HDMV/PGS
  204. Codec ID/Info                            : The same subtitle format used on BDs/HD-DVDs
  205. Language                                 : Portuguese
  206. Default                                  : No
  207. Forced                                   : No

  208. Text #8
  209. ID                                       : 15
  210. Format                                   : PGS
  211. Muxing mode                              : zlib
  212. Codec ID                                 : S_HDMV/PGS
  213. Codec ID/Info                            : The same subtitle format used on BDs/HD-DVDs
  214. Language                                 : Portuguese
  215. Default                                  : No
  216. Forced                                   : No

  217. Menu
  218. 00:00:00.000                             : en:Chapter 01
  219. 00:07:56.309                             : en:Chapter 02
  220. 00:15:20.210                             : en:Chapter 03
  221. 00:23:49.803                             : en:Chapter 04
  222. 00:31:15.665                             : en:Chapter 05
  223. 00:39:19.273                             : en:Chapter 06
  224. 00:46:58.273                             : en:Chapter 07
  225. 00:54:11.957                             : en:Chapter 08
  226. 01:00:55.485                             : en:Chapter 09
  227. 01:09:43.304                             : en:Chapter 10
  228. 01:16:24.371                             : en:Chapter 11
  229. 01:23:07.732                             : en:Chapter 12
  230. 01:32:20.618                             : en:Chapter 13
  231. 01:41:19.323                             : en:Chapter 14
复制代码

复制代码

-------------------------
◎出色剧照
155923a96zmn2ianrm2fmi.jpg
155924h01l61o6m6zufoc5.jpg
155925mxbdz1x7v847441v.jpg
155925lu7mh6ikdv4u4k7v.jpg

-------------------------
[以上高清电影剧照来自互联网,不代表此片高清剧照]
慎重声明:本站供给的一切高清电影作品均是在网上汇集,任何触及贸易盈利目标均不得利用,否则发生的一切结果将由您自己承当!本站将差池本站的任何内容负任何法令义务!该下载内容仅做宽带测试利用,请鄙人载后24小时内删除。请采办正
版!
-------------------------
◎种子下载地址
旅客,假如您要检察本帖隐藏内容请答复
回复

使用道具 举报

懒得打字嘛,点击右侧快捷回复 【右侧内容,后台自定义】
您需要登录后才可以回帖 登录 | 立即加入

本版积分规则

Archiver|小黑屋| 蓝光电影网 |网站地图

Copyright © 2021 Comsenz Inc. Powered by 蓝光电影网

蓝光电影网

本站内容由用户自主分享和转载自互联网,转载目的在于传递更多信息,并不代表本网赞同其观点和对其真实性负责。

如有侵权、违反国家法律政策行为,请联系我们,我们会第一时间及时清除和处理!

举报反馈邮箱:[email protected]

快速回复 返回顶部 返回列表